Торрент файл
скачать торрент магнет ссылка Добавлен: 01 фев 2012, 17:18
Размер: 2.91 ГБ
Сидеров: 2
Личеров: 3
Автор

СообщениеДобавлено: 01 фев 2012, 17:18 

Не в сети
Супермодератор
Аватара пользователя
Дата регистрации:
14 июн 2010, 21:00
Возраст: 28
Спасибо: 1324 / 1
Сообщения: 5644
Откуда: НиНО
Николас Никльби / Nicholas Nickleby-Страна: Австралия, "Burbank films"
Жанр: мультфильм, экранизация
Продолжительность: 01:12:04
Год выпуска: 1985
Перевод: Профессиональный (дублированный) Варус-Видео
Русские субтитры: нет-Режиссёр: Уорвик Гилберт, Алекс Николас / Warwick Gilbert, Alex Nicholas
Роли озвучивали: Колин Боргонон, Филлип Хинтон, Уоллас Итон, Лиз Хорн
Роли дублировали: Сергей Чекан, Владимир Феропонтов, Ольга Голованова, Борис Быстров, Василий Куприянов, Ирина Губанова, Алексей Борзунов, Юрий Саранцев, Андрей Градов--Описание: По произведению Чарльза Диккенса. В центре мультфильма - судьба Николаса Никльби, юноши из бедной семьи. После смерти отца семья попадает в зависимость от богатого и жестокого родственника. Немало горестей выпало на долю Николаса в частном пансионе и в труппе бедного провинциального театра. Но наконец судьба улыбнулась ему...-Доп. материалы: отсутствуют. Меню частично анимированное, озвученное.-Доп. информация: Спасибо Joan 1945 за любезно предоставленную оцифровку звука с VHS.
Спасибо multmir за любезно предоставленный исходный DVD R2.
Чистка и синхронизация звука, реавторинг - xfiles.-Релиз группы: -Семпл: http://onemove.ru/40939/-Качество: DVD5 (Custom) R2
Формат: DVD-Video
Видео: PAL 4:3 (720x576) VBR ~5000 kbps
Аудио #1: Русский, AC3, 2/0 (L,R) ch, 192 kbps (Варус-Видео, VHS, Dual mono)
Аудио #2: Английский, AC3, 3/2 (L,C,R,SL,SR)+LFE ch, 448 kbps (оригинал)
Субтитры: Отсутствуют
DVDInfo
Код:
Title: Nicholas_Nickleby
Size: 2.91 Gb ( 3 056 388,00 KBytes ) - DVD-5
Enabled regions: 1, 2, 3, 4, 5, 6, 7, 8
VTS_01 :
Play Length: 01:12:04+{01:12:04}+{01:12:04}
Video: PAL 4:3 (720x576) VBR
Audio:
Russian, AC3, 2/0 (L,R) ch, 192 kbps, Delay 0 mSec
English, AC3, 3/2 (L,C,R,SL,SR)+LFE ch, 448 kbps, Delay 0 mSec
MediaInfo
Код:
General
Complete name: E:\Video\Nicholas_Nickleby\VIDEO_TS\VTS_01_1.VOB
Format: MPEG-PS
File size: 1 024 MiB
Duration: 24mn 54s
Overall bit rate: 5 749 Kbps
Video
ID: 224 (0xE0)
Format: MPEG Video
Format version: Version 2
Format profile: Main@Main
Format settings, BVOP: Yes
Format settings, Matrix: Default
Format settings, GOP: M=3, N=15
Duration: 24mn 54s
Bit rate mode: Constant
Bit rate: 5 000 Kbps
Width: 720 pixels
Height: 576 pixels
Display aspect ratio: 4:3
Frame rate: 25.000 fps
Standard: PAL
Color space: YUV
Chroma subsampling: 4:2:0
Bit depth: 8 bits
Scan type: Interlaced
Scan order: Top Field First
Bits/(Pixel*Frame): 0.482
Stream size: 890 MiB (87%)
Audio #1
ID: 128 (0x80)
Format: AC-3
Format/Info: Audio Coding 3
Mode extension: CM (complete main)
Duration: 24mn 54s
Bit rate mode: Constant
Bit rate: 192 Kbps
Channel(s): 2 channels
Channel positions: Front: L R
Sampling rate: 48.0 KHz
Bit depth: 16 bits
Video delay: -80ms
Stream size: 34.2 MiB (3%)
Audio #2
ID: 129 (0x81)
Format: AC-3
Format/Info: Audio Coding 3
Mode extension: CM (complete main)
Duration: 24mn 54s
Bit rate mode: Constant
Bit rate: 448 Kbps
Channel(s): 6 channels
Channel positions: Front: L C R, Side: L R, LFE
Sampling rate: 48.0 KHz
Bit depth: 16 bits
Video delay: -80ms
Stream size: 79.8 MiB (8%)
Скриншоты меню
Скриншоты




реклама партнёра


Вернуться к началу
 Профиль Отправить личное сообщение  
 
   Похожие торренты   Автор   Торрент   Размер 
В этой теме нет новых непрочитанных сообщений. Amori & segreti / Любовь и секреты (Nicholas Moore, FM Video)[1993 г., Anal, Compilation, BDWC, Lesbian, Threesome, DVDRip]

max77777

2 | 0

1.36 ГБ

В этой теме нет новых непрочитанных сообщений. She's DTF: Down to Fuck 2 / Она склонна к траху 2 (Nicholas Steele / Bluebird Films) (Brooklyn Chase, Maddy O'Reilly, Alison Tyler, Jessie Rogers, Brooklyn Lee...) [2013 г., All Sex, Gonzo, DVDRip 404p]

friizze

2 | 3

2.81 ГБ

В этой теме нет новых непрочитанных сообщений. Весенняя Лихорадка США / Lauderdale [комедия, 1989] DVDRip, Mvo [Варус Видео]

salma3

166 | 10

705.78 МБ

В этой теме нет новых непрочитанных сообщений. Гроздья раздора / Sour Grapes [комедия, 1998] DVDRip, Mvo [Варус Видео]

salma3

40 | 8

742.6 МБ

В этой теме нет новых непрочитанных сообщений. Бонни и Клайд / Bonnie and Clyde [драма, криминал, биография, 1967] BDRip. Dub [Варус Видео]

salma3

28 | 3

1.46 ГБ

В этой теме нет новых непрочитанных сообщений. Ночь убийств / Mountaintop Motel Massacre [ужасы, триллер, 1986] DVDRip, Mvo [Варус Видео]

salma3

17 | 2

1.46 ГБ

В этой теме нет новых непрочитанных сообщений. Эйс Вентура: Розыск домашних животных / Ace Ventura: Pet Detective [комедия, детектив, приключения, 1994] BDRip, Dub [Варус Видео]

salma3

101 | 13

1.45 ГБ


Начать новую тему Ответить на тему  [ 1 сообщение ] 




Для Мосгорсуда, Роскомнадзора и рекламодателей:: mosgorsud-torrent[собачка]yandex.ru