Торрент файл
скачать торрент магнет ссылка Добавлен: 30 янв 2012, 17:40
Размер: 3.41 ГБ
Сидеров: 1
Личеров: 2
Автор

СообщениеДобавлено: 30 янв 2012, 17:40 

Не в сети
Супермодератор
Аватара пользователя
Дата регистрации:
14 июн 2010, 21:00
Возраст: 29
Спасибо: 1337 / 1
Сообщения: 5611
Откуда: НиНО
Псы-миллионеры / Hot Dogs: Wau - wir sind reich! / Millionaire Dogs
Год выпуска: 1999
Страна: Германия
Жанр: комедия, приключения, семейный, мультфильм
Продолжительность: 01:21:54
Перевод: Профессиональный (многоголосый, закадровый)
Русские субтитры: нет
Режиссер: Майкл Шуманн / Michael Schoemann
В ролях:
1. Майкл Шевалье (Michael Chevalier) ... Sherman, озвучка
2. Thomas Danneberg () ... J.D., озвучка
3. Нина Хаген (Nina Hagen) ... Emmo, озвучка
4. Hans Hohlbein () ... Chuffie, озвучка
5. Katharina Koschny () ... Bella, озвучка
6. Lutz Mackensy () ... Ronnie, озвучка
7. Philine Peters-Arnolds () ... Hannie, озвучка
8. Беттина Шён (Bettina Schön) ... Miss Lilly, озвучка
9. Magdalena Turba () ... Velvet, озвучка
Описание:
...полнометражный мультипликационный фильм. В самом начале из дорогого лимузина выкидывают пса по кличке Чаппи, а вслед за ним и его ошейник. С горя он хотел лечь под грузовик, но его спас другой, бездомный пес, в результате чего оба упали в воду. Только они сели погреться у костра под мостом, как с мотоцикла пожилой рокерши сорвался попугай и зацепился за самый краешек. Так спасли они и упавшего попугая по кличке Эмо, решив сделать из него жаркое. Но Эмо оказался хитрецом. Он сказал, что дал слово научиться летать и показаться перед смертью своей мамочке. К тому же он обещал найти собачкам сухое жилье и привел к той самой рокерше. Мисс Лили оказалась очень доброй женщиной, а услышав рассказ о спасении Эмо, сразу впустила всех в свой "дом животных", старинный, большой особняк. Зверюшек там действительно было много, и все играли на музыкальных инструментах не хуже другого ансамбля. Авторы мультика познакомят мальчиков и девочек со всеми обитателями дома, но должен же быть сюжет, а в нем злодеи! Злодеями в этом фильме будут племянник и племянница, злостные и противные жадины, которые хотят отправить тетушку в богадельню. Они обещают Лили, что обязательно позаботятся о животных. Разумеется, для самих животных переезд мисс Лили крайне нежелателен. И вдруг добрая мисс Лили внезапно умирает. При оглашении завещания мисс Лили племянник и племянница уже планировали, как они все переделают, а тут прозвучали слова о том, что все состояние оставлено животным. Разъяренные родственники решили любой ценой вернуть себе тетушкино наследство и, для достижения своей цели, они были готовы на все. Что будет дальше, Ваши дети захотят узнать сами. (М. Иванов)
Доп. материалы: отсутствуют
Доп. информация:
Изготовление диска
1. Видео взято с голландского издания RCV:

2. Русская дорожка захвачена с VHS, подгонка и чистка - CoolEdit Pro, сжатие в AC3 - Sonic Foundry Soft Encode;
3. Сборка диска и создание меню - DVDLab Pro 2
Скриншоты меню
MediaInfo
Код:
Видео
Идентификатор: 224 (0xE0)
Формат: MPEG Video
Версия формата: Version 2
Профиль формата: Main@Main
Параметр BVOP формата: Да
Параметр матрицы формата: По умолчанию
Параметры GOP формата: M=3, N=15
Продолжительность: 23 м.
Вид битрейта: Переменный
Битрейт: 5505 Кбит/сек
Номинальный битрейт: 9000 Кбит/сек
Ширина: 720 пикс.
Высота: 576 пикс.
Соотношение сторон: 4:3
Частота кадров: 25,000 кадр/сек
Стандарт вещания: PAL
Цветовое пространство: YUV
Подвыборка цветности: 4:2:0
Битовая глубина: 8 бит
Тип развёртки: Чересстрочная
Порядок развёртки: Верхнее поле первое
Метод сжатия: С потерями
Бит/(Пиксели*Кадры): 0.531
Размер потока: 933 Мбайт (91%)
Аудио #1
Идентификатор: 128 (0x80)
Формат: AC-3
Формат/Информация: Audio Coding 3
Расширение режима: CM (complete main)
Продолжительность: 23 м.
Вид битрейта: Постоянный
Битрейт: 192 Кбит/сек
Канал(ы): 2 канала(ов)
Расположение каналов: Front: L R
Частота: 48,0 КГц
Битовая глубина: 16 бит
Метод сжатия: С потерями
Задержка видео: -80 мс.
Размер потока: 32,5 Мбайт (3%)
Аудио #2
Идентификатор: 129 (0x81)
Формат: AC-3
Формат/Информация: Audio Coding 3
Расширение режима: CM (complete main)
Продолжительность: 23 м.
Вид битрейта: Постоянный
Битрейт: 224 Кбит/сек
Канал(ы): 2 канала(ов)
Расположение каналов: Front: L R
Частота: 48,0 КГц
Битовая глубина: 16 бит
Метод сжатия: С потерями
Задержка видео: -80 мс.
Размер потока: 38,0 Мбайт (4%)
DVDInfo
Код:
Title:
Size: 3.41 Gb ( 3 574 224 KBytes ) - DVD-5
Enabled regions: 1, 2, 3, 4, 5, 6, 7, 8
VTS_01 :
Play Length: 01:21:55+00:00:14+00:00:10
Video: PAL 4:3 (704x576) VBR
Audio:
Russian (Dolby AC3, 2 ch)
Dansk (Dolby AC3, 2 ch)
Menu Video:
PAL 4:3 (704x576) VBR
Menu English Language Unit :
Root Menu

Качество: DVD5 (Custom)
Формат: DVD-video
Видео: PAL 4:3 (720x576) VBR ~5505 kbps avg
Аудио#1: 48 kHz, AC3 Dolby Digital, 2/0 (L,R) ch, ~192.00 kbps avg [Профессиональный (многоголосый, закадровый)]
Аудио#2: 48 kHz, AC3 Dolby Digital, 2/0 (L,R) ch, ~224.00 kbps avg [Голландский дубляж]
Субтитры: отсутствуют
Скриншоты:




реклама партнёра


Вернуться к началу
 Профиль Отправить личное сообщение  
 
   Похожие торренты   Автор   Торрент   Размер 
В этой теме нет новых непрочитанных сообщений. Так себе каникулы / Old Dogs [Комедия, семейный, 2009] BDRip 1080p, Dub+Sub

salma3

94 | 82

8.27 ГБ

В этой теме нет новых непрочитанных сообщений. Отель для собак / Hotel for Dogs [Комедия, семейный, 2009] BDRip 720p, Dub+Dvo+Sub

salma3

23 | 4

7.35 ГБ

В этой теме нет новых непрочитанных сообщений. Собаки моих бывших / My Boyfriends' Dogs (Терри Ингрэм / Terry Ingram) [2014г., комедия, семейный, TVRip] DVO

Alfredovich

2 | 2

744.72 МБ

В этой теме нет новых непрочитанных сообщений. В поисках Дори / Finding Dory (Мультфильм, комедия, приключения, семейный, 2016) DVD9 | Custom

marya111

29 | 18

6.39 ГБ

В этой теме нет новых непрочитанных сообщений. Все собаки празднуют Рождество / An All Dogs Christmas Carol [мультфильм, 1998] WEB-DL 1080p, Dub

salma3

64 | 18

3.5 ГБ

В этой теме нет новых непрочитанных сообщений. Бриллиантовые псы / Diamond Dogs [боевик, приключения, 2007] HDRip, Dvo

salma3

114 | 31

1.46 ГБ

В этой теме нет новых непрочитанных сообщений. Гончие псы / Car Dogs [драма, комедия, 2016] WEB-DLRip, Mvo

salma3

27 | 9

1.37 ГБ


Начать новую тему Ответить на тему  [ 1 сообщение ] 




Для Мосгорсуда, Роскомнадзора и рекламодателей:: mosgorsud-torrent[собачка]yandex.ru