Торрент файл
скачать торрент магнет ссылка Добавлен: 30 янв 2012, 17:33
Размер: 6.85 ГБ
Сидеров: 1
Личеров: 3
Автор

СообщениеДобавлено: 30 янв 2012, 17:33 

Не в сети
Супермодератор
Аватара пользователя
Дата регистрации:
14 июн 2010, 21:00
Возраст: 28
Спасибо: 1324 / 1
Сообщения: 5644
Откуда: НиНО
-Девочка-Лисичка / Yobi, The Five Tailed Fox-Страна: Южная Корея
Жанр: приключения, фэнтези
Продолжительность: 01:25:30
Год выпуска: 2007
Перевод: Профессиональный (дублированный)
Русские субтитры: есть-Режиссёр: Ли Сон-кан / Lee Seong-kang
Описание: В корейских горах до сих пор водятся знаменитые лисы-оборотни. Они хитры, неуловимы и способны похищать человеческие души.
Юби – тоже лисица; правда, хвостов у нее только пять, лет ей всего-навсего сто, и нет ни одной похищенной души в активе. Собственно, ей сейчас не до людских душ: неподалеку от ее норы разбился корабль инопланетян, и добрая Юби предоставила потерпевшим стол и кров. Для пришельцев главное – не показываться людям на глаза, пока их тарелка не будет исправлена. Но легко ли это устроить, ведь рядом с домом Юби открыта школа для проблемных детей...
© Анастасия Розанова, World Art-Источник: -Доп. материалы: отсутствуют
Качество: DVD9
Формат: DVD-video
Видео: PAL 16:9 (720x576) VBR
Аудио 1: Russian (Dolby AC3, 6 ch), 448 Kbps
Аудио 2: Korean (Dolby AC3, 6 ch), 448 Kbps
Субтитры: Русские-
MediaInfo
General
Complete name : D:\Anime\Девочка-Лисичка\VTS_01_1.VOB
Format : MPEG-PS
File size : 1 024 MiB
Duration : 14mn 58s
Overall bit rate : 9 559 Kbps
Video
ID : 224 (0xE0)
Format : MPEG Video
Format version : Version 2
Format profile : Main@Main
Format settings, BVOP : Yes
Format settings, Matrix : Default
Duration : 14mn 58s
Bit rate mode : Constant
Bit rate : 8 500 Kbps
Width : 720 pixels
Height : 576 pixels
Display aspect ratio : 16:9
Frame rate : 25.000 fps
Standard : PAL
Color space : YUV
Chroma subsampling : 4:2:0
Bit depth : 8 bits
Scan type : Interlaced
Scan order : Bottom Field First
Compression mode : Lossy
Bits/(Pixel*Frame) : 0.820
Stream size : 907 MiB (89%)
Audio #1
ID : 189 (0xBD)-128 (0x80)
Format : AC-3
Format/Info : Audio Coding 3
Mode extension : CM (complete main)
Muxing mode : DVD-Video
Duration : 14mn 58s
Bit rate mode : Constant
Bit rate : 448 Kbps
Channel(s) : 6 channels
Channel positions : Front: L C R, Side: L R, LFE
Sampling rate : 48.0 KHz
Bit depth : 16 bits
Compression mode : Lossy
Stream size : 48.0 MiB (5%)
Audio #2
ID : 189 (0xBD)-129 (0x81)
Format : AC-3
Format/Info : Audio Coding 3
Mode extension : CM (complete main)
Muxing mode : DVD-Video
Duration : 14mn 58s
Bit rate mode : Constant
Bit rate : 448 Kbps
Channel(s) : 6 channels
Channel positions : Front: L C R, Side: L R, LFE
Sampling rate : 48.0 KHz
Bit depth : 16 bits
Compression mode : Lossy
Stream size : 48.0 MiB (5%)
Menu
DVDInfo
Код:
Title: Девочка-Лисичка
Size: 6.85 Gb ( 7 180 636,00 KBytes ) - DVD-9
Enabled regions: 1, 2, 3, 4, 5, 6, 7, 8
VTS_01 :
Play Length: 01:25:30
Video: PAL 16:9 (720x576) VBR, Auto Letterboxed
Audio:
Russian (Dolby AC3, 6 ch)
Korean (Dolby AC3, 6 ch)
Subtitles:
Russian
VTS_02 :
Play Length: 00:01:27
Video: PAL 16:9 (720x576) VBR, Auto Letterboxed
Audio:
English (Dolby AC3, 6 ch)
VTS_03 :
Play Length: 00:01:40
Video: PAL 4:3 (720x576) VBR
Audio:
English (Dolby AC3, 2 ch)
VTS_04 :
Play Length: 00:01:22
Video: PAL 4:3 (720x576) VBR
Audio:
English (Dolby AC3, 2 ch)
VTS_05 :
Play Length: 00:00:10
Video: PAL 4:3 (720x576) VBR
VTS_06 :
Play Length: 00:00:20
Video: PAL 4:3 (720x576) VBR
Audio:
English (Dolby AC3, 6 ch)
VTS_07 :
Play Length: 00:00:05
Video: PAL 4:3 (720x576) VBR
VTS_08 :
Play Length: 00:00:29
Video: PAL 4:3 (720x576) VBR
Audio:
English (Dolby AC3, 2 ch)
VTS_09 :
Play Length: 00:13:15
Video: PAL 4:3 (720x576) VBR
Audio:
English (Dolby AC3, 2 ch)
VTS_10 :
Play Length: 00:02:05
Video: PAL 4:3 (720x576) VBR
Audio:
English (Dolby AC3, 2 ch)
VTS_11 :
Play Length: 00:00:54
Video: PAL 4:3 (720x576) VBR
Audio:
English (Dolby AC3, 2 ch)
* Menus Information *
VIDEO_TS Menu
Video:
PAL 16:9 (720x576) VBR
Auto Pan&Scan, Auto Letterboxed
English Language Unit :
Title Menu
VTS_01 Menu
Video:
PAL 16:9 (720x576) VBR
Auto Letterboxed
Audio:
Not specified (Dolby AC3, 6 ch)
English Language Unit :
Root Menu
VTS_02 Menu
Video:
PAL 4:3 (720x576) VBR
English Language Unit :
Root Menu
VTS_03 Menu
Video:
PAL 4:3 (720x576) VBR
English Language Unit :
Root Menu
VTS_04 Menu
Video:
PAL 4:3 (720x576) VBR
English Language Unit :
Root Menu
VTS_05 Menu
Video:
PAL 4:3 (720x576) VBR
English Language Unit :
Root Menu
VTS_06 Menu
Video:
PAL 4:3 (720x576) VBR
English Language Unit :
Root Menu
VTS_07 Menu
Video:
PAL 4:3 (720x576) VBR
English Language Unit :
Root Menu
VTS_08 Menu
Video:
PAL 4:3 (720x576) VBR
English Language Unit :
Root Menu
VTS_09 Menu
Video:
PAL 4:3 (720x576) VBR
English Language Unit :
Root Menu
VTS_10 Menu
Video:
PAL 4:3 (720x576) VBR
English Language Unit :
Root Menu
VTS_11 Menu
Video:
PAL 4:3 (720x576) VBR
English Language Unit :
Root Menu
Скриншоты меню
Скриншоты
Отличия
от http://rutracker.org/forum/viewtopic.php?t=867390 - наличие оригинальной корейской аудиодороги в комплекте с русскими субтитрами;
от http://rutracker.org/forum/viewtopic.php?t=2989428 - DVD9;
от http://rutracker.org/forum/viewtopic.php?t=1196501 - DVD9
--




реклама партнёра


Вернуться к началу
 Профиль Отправить личное сообщение  
 
   Похожие торренты   Автор   Торрент   Размер 
В этой теме нет новых непрочитанных сообщений. Аватар: Легенда об Аанге Книга 3.Огонь / Avatar: The Last Airbender The book 3.Fire [Сезон: 3 / Серии: 21] [Мультсериал, приключения, фэнтези, 2007] DVD9, Dub

hobbit1021

1 | 2

28.79 ГБ

В этой теме нет новых непрочитанных сообщений. Седьмой сын / Seventh Son (Сергей Бодров) [фэнтези, приключения, 2014] DVD9, Dub+Sub [Лицензия]

Dracon

0 | 0

5.86 ГБ

В этой теме нет новых непрочитанных сообщений. Девочка со спичками / Das Mädchen mit den Schwefelhölzern (Уве Янсон) [фэнтези, семейный, 2013] TVRip, Dvo

Dracon

913 | 41

1.22 ГБ

В этой теме нет новых непрочитанных сообщений. Давайте надеяться, что будет девочка / Надеемся, что будет девочка / Speriamo che sia femmina (Марио Моничелли / Mario Monicelli) [1986г., драма, комедия, DVDRip] avo

Alfredovich

5 | 3

1.47 ГБ

В этой теме нет новых непрочитанных сообщений. Юность / Rediaeksyeon cheongchun (Seong-su Ju / Чжу Сон Су) [2014г., Южная Корея, драма, мелодрама, триллер, HDRip] sub

Alfredovich

2 | 2

1.46 ГБ

В этой теме нет новых непрочитанных сообщений. Тоннель / Teoneol / Teo-neol (Ким Сон-хун / Kim Seong-hoon) [2016г., Южная Корея, драма, триллер, HDRip] DVO

Alfredovich

23 | 7

1.45 ГБ

В этой теме нет новых непрочитанных сообщений. Как приручить дракона 2 / How to Train Your Dragon 2 [мультфильм, фэнтези, комедия, приключения, семейный, 2014] DVD9, Dub+Sub [лицензия]

Dracon

49 | 2

7.54 ГБ


Начать новую тему Ответить на тему  [ 1 сообщение ] 




Для Мосгорсуда, Роскомнадзора и рекламодателей:: mosgorsud-torrent[собачка]yandex.ru