Торрент файл
скачать торрент магнет ссылка Добавлен: 29 янв 2012, 16:05
Размер: 4.27 ГБ
Сидеров: 1
Личеров: 2
Автор

СообщениеДобавлено: 29 янв 2012, 16:05 

Не в сети
Супермодератор
Аватара пользователя
Дата регистрации:
14 июн 2010, 21:00
Возраст: 28
Спасибо: 1324 / 1
Сообщения: 5644
Откуда: НиНО
Ловушка для кошек / Macskafogó / Cat City-Год выпуска: 1986
Страна: Hungary | Canada | West Germany
Жанр: комедия, приключения, мультфильм
Продолжительность: 01:24:36
Перевод: Профессиональный (полное дублирование) "Союзмультфильм", 1988г.
Русские субтитры: нет-Режиссер: Белла Терновски / Béla Ternovszky
Роли дублировали: Всеволод Ларионов, Роман Ткачук, Александр Белявский, Алла Будницкая, Владимир Ферапонтов, Герман Качин, Валерий Рыжаков, Надежда Румянцева.--Описание: Кошачьи банды, объединившись в преступные группировки, готовятся к решающей битве с мышами. Мыши, узнав об этом, сначала загрустили, но потом стало известно, что некий профессор Фусимиси изобрел аппарат, позволяющий сделать кошек беспомощными. В путь к профессору отправляется лучший мышиный агент. Коты через своих осведомителей получают сведения об опасности, и за мышиным агентом отправляются крысы-убийцы…-Доп. материалы: Смотрите на DVD, текстовая информация о производителе диска.-Доп. информация: Советская кинопрокатная версия. Издание "Классик-Видео" (Украина).-Релиз группы: -Качество: DVD5
Формат: DVD Video
Видео: PAL 4:3 (720x576) VBR, ~5129 kbps
Аудио: Русский (LinearPCM, 2 ch, 1536 kbps)
Субтитры: отсутствуют
Скриншоты меню
Скриншоты
DVDInfo
Код:
Title: LOVUSHKA_[Klassic-video]
Size: 4.26 Gb ( 4 467 676,00 KBytes ) - DVD-5
Enabled regions: 1, 2, 3, 4, 5, 6, 7, 8
VTS_01 :
Play Length: 01:24:36
Video: PAL 4:3 (720x576) VBR
Audio:
Russian (LinearPCM, 2 ch)
VTS_02 :
Play Length: 00:03:22
Video: PAL 4:3 (720x576) VBR
Audio:
Russian (Dolby AC3, 2 ch)
MediaInfo
Код:
General
Complete name: D:\LOVUSHKA_[Klassic-video]\VIDEO_TS\VTS_01_1.VOB
Format: MPEG-PS
File size: 1 024 MiB
Duration: 21mn 2s
Overall bit rate: 6 800 Kbps
Video
ID: 224 (0xE0)
Format: MPEG Video
Format version: Version 2
Format profile: Main@Main
Format settings, BVOP: Yes
Format settings, Matrix: Default
Format settings, GOP: M=3, N=12
Duration: 21mn 2s
Bit rate mode: Variable
Bit rate: 5 129 Kbps
Nominal bit rate: 8 494 Kbps
Width: 720 pixels
Height: 576 pixels
Display aspect ratio: 4:3
Frame rate: 25.000 fps
Standard: PAL
Color space: YUV
Chroma subsampling: 4:2:0
Bit depth: 8 bits
Scan type: Interlaced
Scan order: Top Field First
Bits/(Pixel*Frame): 0.495
Stream size: 772 MiB (75%)
Audio
ID: 160 (0xA0)
Format: PCM
Format settings, Endianness: Big
Format settings, Sign: Signed
Muxing mode: DVD-Video
Duration: 21mn 2s
Bit rate mode: Constant
Bit rate: 1 536 Kbps
Channel(s): 2 channels
Channel positions: Front: L R
Sampling rate: 48.0 KHz
Bit depth: 16 bits
Stream size: 231 MiB (23%)
Menu




реклама партнёра


Вернуться к началу
 Профиль Отправить личное сообщение  
 
   Похожие торренты   Автор   Торрент   Размер 
В этой теме нет новых непрочитанных сообщений. Ловушка для родителей 2 / The Parent Trap II [Комедия, семейный, 1986] DVDRip, Mvo

salma3

32 | 8

1.36 ГБ

В этой теме нет новых непрочитанных сообщений. Ловушка Юрского периода / Jurassic City [фантастика, 2014] DVDRip, Avo

salma3

504 | 18

1.37 ГБ

В этой теме нет новых непрочитанных сообщений. Белка и Стрелка: Лунные приключения [мультфильм, комедия, приключения, семейный, 2013] DVD5 [Лицензия]

Dracon

31 | 7

4.34 ГБ

В этой теме нет новых непрочитанных сообщений. Зверополис / Zootopia (мультфильм, боевик, комедия, криминал, приключения, семейный, 2016) BDRip 1080p от New-Team & qqss44 | Локализованная версия | Лицензия

marya111

310 | 87

7.75 ГБ

В этой теме нет новых непрочитанных сообщений. Хороший динозавр / The Good Dinosaur (мультфильм, фэнтези, комедия, приключения, семейный, 2015) BDRip 1080p от New-Team & qqss44 | Локализованная версия | Лицензия

marya111

65 | 21

5.75 ГБ

В этой теме нет новых непрочитанных сообщений. Реальная белка / The Nut Job [мультфильм, комедия, приключения, семейный, 2014] DVD5, Dub [Лицензия]

Dracon

28 | 3

4.2 ГБ

В этой теме нет новых непрочитанных сообщений. Дом / Home (Тим Джонсон) [мультфильм, фантастика, фэнтези, комедия, приключения, семейный, 2015] DVD5, Dub+Sub [Лицензия]

Dracon

3 | 0

4.36 ГБ


Начать новую тему Ответить на тему  [ 1 сообщение ] 




Для Мосгорсуда, Роскомнадзора и рекламодателей:: mosgorsud-torrent[собачка]yandex.ru