Торрент файл
скачать торрент магнет ссылка Добавлен: 28 янв 2012, 14:15
Размер: 27.68 ГБ
Сидеров: 40
Личеров: 14
Автор

СообщениеДобавлено: 28 янв 2012, 14:15 

Не в сети
Супермодератор
Аватара пользователя
Дата регистрации:
11 апр 2010, 18:10
Спасибо: 5801 / 7
Сообщения: 56779
Алеша Попович и Тугарин Змей / Добрыня Никитич и Змей Горыныч / Илья Муромец и Соловей Разбойник / Три богатыря и Шамаханская царица
Алеша Попович и Тугарин Змей

Перевод: не требуется
Субтитры: отсутствуют
Формат: BDRemux, MKV, H.264, DTS-HD (MA)
Страна: Россия
Режиссер: Константин Бронзит
Жанр: мультфильм, мюзикл, фэнтези, мелодрама, комедия
Продолжительность: 01:18:51
Год выпуска: 2004

Роли дублировали: Олег Куликович, Лия Медведева, Дмитрий Высоцкий, Анатолий Петров, Наталья Данилова, Сергей Маковецкий, Иван Краско, Татьяна Иванова, Михаил Черняк, Константин Бронзит

Описание: В древнем русском городе Ростове родился в поповской семье сын. Назвали его родители Алешей. А когда он вырос и стал богатырем, то совершил такие подвиги, что стал героем русских былин Алешей Поповичем. Только подвиги его начались с конфуза… Подступила к Ростову тугарская вражеская орда во главе с Тугарином Змеем и потребовала, чтобы жители города выплатили дань. Поповский сын предложил план действий. Народ этот план одобрил и собрал гору золота. Алеша же умудрился собственный план "благополучно" провалить, да с каким треском! И золото упустил, и полгорода разрушил. После чего поклялся — Тугарина Змея изловить и золото вернуть. Отправился Алеша Попович в путь вместе с дедом Тихоном, который мальчика вырастил и воспитал, а чуть позже компанию им составили говорящий конь Юлий, купленный у цыган, почти 16-летняя красавица Любава, ее бабка и их ослик Моисей…

Рейтинг на IMDB: 6.9/10
Рейтинг на КиноПоиске: 7.751/10

Видео: 1920x1080p (16:9), 23,976 fps, AVC MPEG-4 (x264), High@L4.1, ~10.1 Mbps avg, 0.203 bit/pixel
Аудио: Русский: 48 kHz, DTS-HD Master Audio, 5.1 ch, ~2080.00 kbps avg, 16-bit (DTS Core: 5.1 / 48 kHz / 1509 kbps / 16-bit)


Формат: Matroska
Версия формата: Version 2
Размер файла: 6,54 Гбайт
Продолжительность: 1 ч. 18 м.
Режим общего битрейта: Переменный
Общий поток: 11,9 Мбит/сек
Дата кодирования: UTC 2012-01-04 20:26:36
Программа кодирования: mkvmerge v5.2.1 ('A Far Off Place') built on Jan2 2012 23:21:10
Библиотека кодирования: libebml v1.2.3 + libmatroska v1.3.0

Видео
Идентификатор: 1
Формат: AVC
Формат/Информация: Advanced Video Codec
Профиль формата: High@L4.1
Параметр CABAC формата: Да
Параметр ReFrames формата: 4 кадра
Параметр GOP формата: M=3, N=24
Режим смешивания: Header stripping
Идентификатор кодека: V_MPEG4/ISO/AVC
Продолжительность: 1 ч. 18 м.
Вид битрейта: Постоянный
Битрейт: 10,1 Мбит/сек
Номинальный битрейт: 25,0 Мбит/сек
Ширина: 1920 пикселей
Высота: 1080 пикселей
Соотношение сторон: 16:9
Частота кадров: 23,976 кадра/сек
Стандарт вещания: NTSC
Цветовое пространство: YUV
Субдискретизация насыщенности: 4:2:0
Битовая глубина: 8 бит
Тип развёртки: Прогрессивная
Бит/(Пиксели*Кадры): 0.203
Размер потока: 5,55 Гбайт (85%)
Default: Да
Forced: Нет
Основные цвета: BT.709-5, BT.1361, IEC 61966-2-4, SMPTE RP177
Характеристики трансфера: BT.709-5, BT.1361
Коэффициенты матрицы: BT.709-5, BT.1361, IEC 61966-2-4 709, SMPTE RP177

Аудио
Идентификатор: 2
Формат: DTS
Формат/Информация: Digital Theater Systems
Профиль формата: MA / Core
Режим смешивания: Header stripping
Идентификатор кодека: A_DTS
Продолжительность: 1 ч. 18 м.
Вид битрейта: Переменный
Битрейт: 1561 Кбит/сек / 1510 Кбит/сек
Каналы: 6 каналов
Расположение каналов: Front: L C R, Side: L R, LFE
Частота: 48,0 КГц
Битовая глубина: 16 бит
Метод сжатия: Без потерь / Lossy
Язык: Russian
Default: Да
Forced: Да


































Добрыня Никитич и Змей Горыныч

Перевод: не требуется
Субтитры: отсутствуют
Формат: BDRemux, MKV, H.264, DTS-HD (MA)
Страна: Россия
Режиссер: Илья Максимов
Жанр: мультфильм, фэнтези, комедия, приключения
Продолжительность: 01:08:08
Год выпуска: 2006

Роли дублировали: Валерий Соловьев, Юрий Тарасов, Сергей Маковецкий, Андрей Толубеев, Екатерина Гороховская, Олег Куликович, Анатолий Петров, Наталья Данилова

Описание: Пока храбрый воин Добрыня Никитич собирал с тугар дань, в Киеве похитили любимую племянницу князя — Забаву Путятичну. Вопреки воле князя, Добрыня с женихом Забавы Елисеем отправляется на ее поиски. В пути их ждет много приключений…

Рейтинг на IMDB: 7.3/10
Рейтинг на КиноПоиске: 7.645/10

Видео: 1920x1080p (16:9), 23,976 fps, AVC MPEG-4 (x264), High@L4.1, ~11.6 Mbps avg, 0.234 bit/pixel
Аудио: Русский: 48 kHz, DTS-HD Master Audio, 5.1 ch, ~2080.00 kbps avg, 16-bit (DTS Core: 5.1 / 48 kHz / 1509 kbps / 16-bit)


Формат: Matroska
Версия формата: Version 2
Размер файла: 6,41 Гбайт
Продолжительность: 1 ч. 8 м.
Режим общего битрейта: Переменный
Общий поток: 13,5 Мбит/сек
Дата кодирования: UTC 2012-01-04 20:58:47
Программа кодирования: mkvmerge v5.2.1 ('A Far Off Place') built on Jan2 2012 23:21:10
Библиотека кодирования: libebml v1.2.3 + libmatroska v1.3.0

Видео
Идентификатор: 1
Формат: AVC
Формат/Информация: Advanced Video Codec
Профиль формата: High@L4.1
Параметр CABAC формата: Да
Параметр ReFrames формата: 4 кадра
Параметр GOP формата: M=3, N=24
Режим смешивания: Header stripping
Идентификатор кодека: V_MPEG4/ISO/AVC
Продолжительность: 1 ч. 8 м.
Вид битрейта: Постоянный
Битрейт: 11,6 Мбит/сек
Номинальный битрейт: 25,0 Мбит/сек
Ширина: 1920 пикселей
Высота: 1080 пикселей
Соотношение сторон: 16:9
Частота кадров: 23,976 кадра/сек
Стандарт вещания: NTSC
Цветовое пространство: YUV
Субдискретизация насыщенности: 4:2:0
Битовая глубина: 8 бит
Тип развёртки: Прогрессивная
Бит/(Пиксели*Кадры): 0.234
Размер потока: 5,53 Гбайт (86%)
Default: Да
Forced: Нет
Основные цвета: BT.709-5, BT.1361, IEC 61966-2-4, SMPTE RP177
Характеристики трансфера: BT.709-5, BT.1361
Коэффициенты матрицы: BT.709-5, BT.1361, IEC 61966-2-4 709, SMPTE RP177

Аудио
Идентификатор: 2
Формат: DTS
Формат/Информация: Digital Theater Systems
Профиль формата: MA / Core
Режим смешивания: Header stripping
Идентификатор кодека: A_DTS
Продолжительность: 1 ч. 8 м.
Вид битрейта: Переменный
Битрейт: 1561 Кбит/сек / 1510 Кбит/сек
Каналы: 6 каналов
Расположение каналов: Front: L C R, Side: L R, LFE
Частота: 48,0 КГц
Битовая глубина: 16 бит
Метод сжатия: Без потерь / Lossy
Язык: Russian
Default: Да
Forced: Да


























Илья Муромец и Соловей Разбойник

Перевод: не требуется
Субтитры: отсутствуют
Формат: BDRemux, MKV, H.264, DTS-HD (MA)
Страна: Россия
Режиссер: Владимир Торопчин
Жанр: мультфильм, комедия, приключения
Продолжительность: 01:19:31
Год выпуска: 2007

Роли дублировали: Олег Табаков, Сергей Маковецкий, Валерий Соловьев, Екатерина Гороховская, Анатолий Петров, Андрей Толубеев, Олег Куликович, Юрий Тарасов, Наталья Данилова

Описание: Славится земля русская богатырями богатырскими да разбойниками разбойничьими… А сверху всего князь княжеский сидит, за всем следит и порядок наводит, если нужно. Да только не всегда выходит у князя так, как нужно — правильно. Вот и сейчас — с богатырём поругался да от Соловья Разбойника урон потерпел немалый: увёл бандит окаянный казну государственную прямо из-под носа!

Что делать князю? А ничего особенного — на то он и князь, чтоб из любой ситуации выход найти! Вот и отправились князь с Ильёй на поиски похищенного, а за ними вслед увязалась корреспондентка летописи «Новая береста». А дорога непростая выдалась, до самого Царьграда довела, где встретил их Император Византийский, да только незадача вышла — повздорили наши герои с императором этим, и заключил он против Князя Киевского и Земель русских союз с Соловьем Разбойником…


Рейтинг на IMDB: 7.1/10
Рейтинг на КиноПоиске: 7.461/10

Видео: 1920x1080p (16:9), 23,976 fps, AVC MPEG-4 (x264), High@L4.1, ~12.0 Mbps avg, 0.242 bit/pixel
Аудио: Русский: 48 kHz, DTS-HD Master Audio, 5.1 ch, ~2080.00 kbps avg, 16-bit (DTS Core: 5.1 / 48 kHz / 1509 kbps / 16-bit)


Формат: Matroska
Версия формата: Version 2
Размер файла: 7,49 Гбайт
Продолжительность: 1 ч. 19 м.
Режим общего битрейта: Переменный
Общий поток: 13,5 Мбит/сек
Дата кодирования: UTC 2012-01-04 21:22:42
Программа кодирования: mkvmerge v5.2.1 ('A Far Off Place') built on Jan2 2012 23:21:10
Библиотека кодирования: libebml v1.2.3 + libmatroska v1.3.0

Видео
Идентификатор: 1
Формат: AVC
Формат/Информация: Advanced Video Codec
Профиль формата: High@L4.1
Параметр CABAC формата: Да
Параметр ReFrames формата: 4 кадра
Параметр GOP формата: M=3, N=24
Режим смешивания: Header stripping
Идентификатор кодека: V_MPEG4/ISO/AVC
Продолжительность: 1 ч. 19 м.
Вид битрейта: Постоянный
Битрейт: 12,0 Мбит/сек
Номинальный битрейт: 28,0 Мбит/сек
Ширина: 1920 пикселей
Высота: 1080 пикселей
Соотношение сторон: 16:9
Частота кадров: 23,976 кадра/сек
Стандарт вещания: NTSC
Цветовое пространство: YUV
Субдискретизация насыщенности: 4:2:0
Битовая глубина: 8 бит
Тип развёртки: Прогрессивная
Бит/(Пиксели*Кадры): 0.242
Размер потока: 6,68 Гбайт (89%)
Default: Да
Forced: Нет
Основные цвета: BT.709-5, BT.1361, IEC 61966-2-4, SMPTE RP177
Характеристики трансфера: BT.709-5, BT.1361
Коэффициенты матрицы: BT.709-5, BT.1361, IEC 61966-2-4 709, SMPTE RP177

Аудио
Идентификатор: 2
Формат: DTS
Формат/Информация: Digital Theater Systems
Профиль формата: MA / Core
Режим смешивания: Header stripping
Идентификатор кодека: A_DTS
Продолжительность: 1 ч. 19 м.
Вид битрейта: Переменный
Битрейт: 1203 Кбит/сек / 1152 Кбит/сек
Каналы: 6 каналов
Расположение каналов: Front: L C R, Side: L R, LFE
Частота: 48,0 КГц
Битовая глубина: 16 бит
Метод сжатия: Без потерь / Lossy
Язык: Russian
Default: Да
Forced: Да




























Три богатыря и Шамаханская царица

Перевод: не требуется
Субтитры: отсутствуют
Формат: BDRemux, MKV, H.264, DTS
Страна: Россия
Режиссер: Сергей Глезин
Жанр: мультфильм, фэнтези, комедия, приключения, семейный
Продолжительность: 01:16:32
Год выпуска: 2010

Роли дублировали: Дмитрий Быковский-Ромашов, Валерий Соловьев, Олег Куликович, Сергей Маковецкий, Анна Геллер, Дмитрий Высоцкий, Константин Бронзит, Мария Цветкова-Овсянникова, Елена Шульман, Лия Медведева

Описание: Легендарная Шамаханская царица, которая сводила с ума многих царей и простых смертных, положила свой глаз и на Киевского князя. Тот заболел любовью странной по ней. Но чтобы доставить в целости и сохранности эту чудо-богиню в Киев-Град, срочно из отпуска вызывают всех троих, уже знакомых нам, богатырей: Алёшу Поповича, Добрыню Никитича и Илью Муромца. Теперь троица должна решить, как быть дальше? Вроде бы и слухи о царице ходят нелестные, и князя жаль.

Рейтинг на IMDB: 6.7/10
Рейтинг на КиноПоиске: 7.113/10

Видео: 1920x1080p (16:9), 24.000 fps (True24p), AVC MPEG-4 (x264), High@L4.1, ~11.8 Mbps avg, 0.236 bit/pixel
Аудио: Русский: 48 kHz, DTS, 5.1 ch, ~1509.00 kbps avg


Формат: Matroska
Версия формата: Version 2
Размер файла: 7,24 Гбайт
Продолжительность: 1 ч. 16 м.
Режим общего битрейта: Постоянный
Общий поток: 13,5 Мбит/сек
Дата кодирования: UTC 2012-01-05 19:01:46
Программа кодирования: mkvmerge v5.2.1 ('A Far Off Place') built on Jan2 2012 23:21:10
Библиотека кодирования: libebml v1.2.3 + libmatroska v1.3.0

Видео
Идентификатор: 1
Формат: AVC
Формат/Информация: Advanced Video Codec
Профиль формата: High@L4.1
Параметр CABAC формата: Да
Параметр ReFrames формата: 3 кадра
Режим смешивания: Header stripping
Идентификатор кодека: V_MPEG4/ISO/AVC
Продолжительность: 1 ч. 16 м.
Вид битрейта: Постоянный
Битрейт: 11,8 Мбит/сек
Номинальный битрейт: 25,0 Мбит/сек
Ширина: 1920 пикселей
Высота: 1080 пикселей
Соотношение сторон: 16:9
Частота кадров: 24,000 кадра/сек
Стандарт вещания: NTSC
Цветовое пространство: YUV
Субдискретизация насыщенности: 4:2:0
Битовая глубина: 8 бит
Тип развёртки: Прогрессивная
Бит/(Пиксели*Кадры): 0.236
Размер потока: 6,28 Гбайт (87%)
Default: Да
Forced: Нет
Основные цвета: BT.709-5, BT.1361, IEC 61966-2-4, SMPTE RP177
Характеристики трансфера: BT.709-5, BT.1361
Коэффициенты матрицы: BT.709-5, BT.1361, IEC 61966-2-4 709, SMPTE RP177

Аудио
Идентификатор: 2
Формат: DTS
Формат/Информация: Digital Theater Systems
Режим смешивания: Header stripping
Идентификатор кодека: A_DTS
Продолжительность: 1 ч. 16 м.
Вид битрейта: Постоянный
Битрейт: 1510 Кбит/сек
Каналы: 6 каналов
Расположение каналов: Front: L C R, Side: L R, LFE
Частота: 48,0 КГц
Битовая глубина: 24 бит
Метод сжатия: С потерями
Размер потока: 826 Мбайт (11%)
Язык: Russian
Default: Да
Forced: Да


































Поделиться:




реклама партнёра


Вернуться к началу
 Профиль Отправить личное сообщение  
 
   Похожие торренты   Автор   Торрент   Размер 
В этой теме нет новых непрочитанных сообщений. Раненый змей / Cut Snake [триллер, 2014] BDRemux 1080p, Mvo

salma3

38 | 35

20.16 ГБ

В этой теме нет новых непрочитанных сообщений. Лесной змей / Wyrmwood (Кия Роуч-Тернер) [Ужасы, Боевик, 2014] BDRip 1080p, dvo+Avo+Sub

Dracon

179 | 13

13.81 ГБ

В этой теме нет новых непрочитанных сообщений. Три богатыря: Ход конем (Константин Феоктистов) [мультфильм, комедия, приключения, фэнтези, 2014] WEB-DLRip 1080p

Dracon

60 | 2

2.7 ГБ

В этой теме нет новых непрочитанных сообщений. Три богатыря: Ход Конем (Константин Феоктистов) [мультфильм, комедия, приключения, фэнтези, 2014] BDRemux 1080p [Лицензия]

Dracon

7 | 2

14.41 ГБ

В этой теме нет новых непрочитанных сообщений. Три богатыря: Ход Конем (Константин Феоктистов) [мультфильм, комедия, приключения, фэнтези, 2014] BDRip 1080p [Лицензия]

Dracon

26 | 2

6.27 ГБ

В этой теме нет новых непрочитанных сообщений. Три богатыря: Ход конем (Константин Феоктистов) [мультфильм, комедия, приключения, фэнтези, 2014] BDRip 1080p [Лицензия | 3D-Video]

Dracon

232 | 6

3.26 ГБ

В этой теме нет новых непрочитанных сообщений. Рапунцель: Запутанная история / Tangled [мультфильм, мюзикл, фэнтези, мелодрама, комедия, семейный, 2010] BDRip-AVC, Dub

salma3

39 | 3

1.46 ГБ


Начать новую тему Ответить на тему  [ 1 сообщение ] 




Для Мосгорсуда, Роскомнадзора и рекламодателей:: mosgorsud-torrent[собачка]yandex.ru