Торрент файл
скачать торрент магнет ссылка Добавлен: 28 янв 2012, 11:36
Размер: 7.16 ГБ
Сидеров: 2
Личеров: 2
Автор

СообщениеДобавлено: 28 янв 2012, 11:36 

Не в сети
Супермодератор
Аватара пользователя
Дата регистрации:
14 июн 2010, 21:00
Возраст: 28
Спасибо: 1325 / 1
Сообщения: 5644
Откуда: НиНО
-Балбесы 3D / Olsen Banden pa de bonede gulve-Две версии: 2D и 3D-Страна: Дания
Студия: A. Film, Nordisk Film A/S
Жанр: мультфильм, комедия, криминал
Год выпуска: 2010
Продолжительность: 01:14:59+01:15:00
Перевод: Профессиональный (дублированный) [Лицензия]
Cубтитры: русские
Оригинальная аудиодорожка: датский-Режиссер: Юрген Лердам / Jorgen Lerdam-Роли озвучивали: Мартин Бух,Николай Кристенсен, Аннетт Хеик, Альберт С. Ланд, Йонас Шмидт-Роли дублировали: Инна Королёва, Иван Жарков, Пётр Иващенко-Описание: Эгон Ольсен — криминальный гений и закоренелый преступник. Его постоянные подельники — Бенни и Кельд, парочка глупых и абсолютно безвредных воришек, никогда не прибегающих к насилию. К сожалению, филигранно продуманные операции Ольсена терпят фиаско с завидной регулярностью, но всякий раз, отмотав срок, компания неунывающих неудачников объединяется, чтобы реализовывать очередной «гениальный» план обогащения.
На сей раз банда Ольсена решает похитить мемориальное перо, которым были написаны лучшие произведения легендарного сказочника Ганса Христиана Андерсена. Но хитроумная операция опять пошла не тем путем! В дело оказались впутаны китайский магнат, датская королева и продажный премьер-министр. Удастся ли Эгону избежать ареста? Или вместо увильнувшей от полиции «крупной рыбы» ему опять придется выступить «козлом отпущения»?..
-Бонусы: нет- -Релиз группы:-Качество: DVD9 R5
Формат: DVD-Video
Видео кодек: MPEG2
Аудио кодек: AC3
Видео: PAL 16:9 (720x576(0.534)) MPEG Video,25,000 кадр/сек, 5542 Кбит/сек
Аудио #1: Russian (Dolby AC3, 6 ch) 384 Кбит/сек, 48,0 КГц
Аудио #2: Dansk (Dolby AC3, 6 ch) 384 Кбит/сек, 48,0 КГц
Аудио #3: Russian (Dolby AC3, 2 ch) 192 Кбит/сек, 48,0 КГц-
-
DVDInfo
Title: Мой диск
Size: 7.16 Gb ( 7 507 346 KBytes ) - DVD-9
Enabled regions: 1, 2, 3, 4, 5, 6, 7, 8
VTS_01 :
Play Length: 00:00:01+01:14:59+01:15:00
Video: PAL 16:9 (720x576) VBR, Auto Letterboxed
Audio:
Russian (Dolby AC3, 6 ch)
Russian (Dolby AC3, 2 ch)
Dansk (Dolby AC3, 6 ch)
Subtitles:
Russian
VTS_02 :
Play Length: 00:00:01+00:00:05+00:00:13
Video: PAL 16:9 (720x576) VBR, Auto Letterboxed
Audio:
Russian (Dolby AC3, 6 ch)
VTS_03 :
Play Length: 00:00:01+00:00:09
Video: PAL 16:9 (720x576) VBR, Auto Letterboxed
Audio:
Russian (Dolby AC3, 2 ch)
MediaInfo
Общее
Полное имя : F:\Новинки 2011\Balbesy.2010.DVD9.[2D.i.3D]\VIDEO_TS\VTS_01_1.VOB
Формат : MPEG-PS
Размер файла : 1024 Мбайт
Продолжительность : 21 м.
Общий поток : 6634 Кбит/сек
Видео
Идентификатор : 224 (0xE0)
Формат : MPEG Video
Версия формата : Version 2
Профиль формата : Main@Main
Параметр BVOP формата : Да
Параметр матрицы формата : По умолчанию
Продолжительность : 21 м.
Вид битрейта : Постоянный
Битрейт : 5542 Кбит/сек
Номинальный битрейт : 6000 Кбит/сек
Ширина : 720 пикс.
Высота : 576 пикс.
Соотношение сторон : 16:9
Частота кадров : 25,000 кадр/сек
Стандарт вещания : PAL
Цветовое пространство : YUV
Подвыборка цветности : 4:2:0
Битовая глубина : 8 бит
Тип развёртки : Чересстрочная
Порядок развёртки : Нижнее поле первое
Метод сжатия : С потерями
Бит/(Пиксели*Кадры) : 0.534
Размер потока : 855 Мбайт (84%)
Аудио #1
Идентификатор : 189 (0xBD)-128 (0x80)
Формат : AC-3
Формат/Информация : Audio Coding 3
Расширение режима : CM (complete main)
Режим смешивания : DVD-Video
Продолжительность : 21 м.
Вид битрейта : Постоянный
Битрейт : 384 Кбит/сек
Канал(ы) : 6 канала(ов)
Расположение каналов : Front: L C R, Side: L R, LFE
Частота : 48,0 КГц
Битовая глубина : 16 бит
Метод сжатия : С потерями
Размер потока : 59,3 Мбайт (6%)
Аудио #2
Идентификатор : 189 (0xBD)-129 (0x81)
Формат : AC-3
Формат/Информация : Audio Coding 3
Расширение режима : CM (complete main)
Режим смешивания : DVD-Video
Продолжительность : 21 м.
Вид битрейта : Постоянный
Битрейт : 192 Кбит/сек
Канал(ы) : 2 канала(ов)
Расположение каналов : Front: L R
Частота : 48,0 КГц
Битовая глубина : 16 бит
Метод сжатия : С потерями
Размер потока : 29,6 Мбайт (3%)
Аудио #3
Идентификатор : 189 (0xBD)-130 (0x82)
Формат : AC-3
Формат/Информация : Audio Coding 3
Расширение режима : CM (complete main)
Режим смешивания : DVD-Video
Продолжительность : 21 м.
Вид битрейта : Постоянный
Битрейт : 384 Кбит/сек
Канал(ы) : 6 канала(ов)
Расположение каналов : Front: L C R, Side: L R, LFE
Частота : 48,0 КГц
Битовая глубина : 16 бит
Метод сжатия : С потерями
Размер потока : 59,3 Мбайт (6%)
Скриншоты меню
Скриншоты мультфильма 2D
Скриншоты мультфильма 3D




реклама партнёра


Вернуться к началу
 Профиль Отправить личное сообщение  
 
   Похожие торренты   Автор   Торрент   Размер 
В этой теме нет новых непрочитанных сообщений. Банда Ольсена в юности / Olsen Banden Junior [комедия, криминал, семейный, 2001] DVDRip, Avo

salma3

5 | 2

1.37 ГБ

В этой теме нет новых непрочитанных сообщений. Головоломка / Inside Out (Пит Доктер, Роналдо Дель Кармен) [Мультфильм, семейный, комедия, 2015] DVD5, Dub+Sub [Лицензия]

Dracon

259 | 30

4.37 ГБ

В этой теме нет новых непрочитанных сообщений. Головоломка / Inside Out (Пит Доктер, Роналдо Дель Кармен) [Мультфильм, комедия, полнометражный, 2015] Blu-Ray, Dub+Sub [2-х дисковое издание | Лицензия]

Dracon

40 | 65

56.68 ГБ

В этой теме нет новых непрочитанных сообщений. Головоломка / Inside Out (Пит Доктер, Роналдо Дель Кармен) [Мультфильм, комедия, полнометражный, 2015] BDRemux 1080p, Dub+Sub [Лицензия]

Dracon

151 | 110

18.78 ГБ

В этой теме нет новых непрочитанных сообщений. Головоломка / Inside Out (Пит Доктер, Роналдо Дель Кармен) [Мультфильм, комедия, полнометражный, 2015] BDRip 1080p, Dub+Sub [Лицензия]

Dracon

225 | 17

8.19 ГБ

В этой теме нет новых непрочитанных сообщений. Головоломка / Inside Out (Пит Доктер, Роналдо Дель Кармен) [мультфильм, драма, комедия, семейный, 2015] WEB-DL 1080p, Dub+Sub [iTunes]

Dracon

8956 | 817

3.7 ГБ

В этой теме нет новых непрочитанных сообщений. Головоломка / Inside Out (Пит Доктер, Роналдо Дель Кармен) [мультфильм, драма, комедия, семейный, 2015] WEB-DL 720p, Dub [iTunes]

Dracon

2253 | 162

2.88 ГБ


Начать новую тему Ответить на тему  [ 1 сообщение ] 




Для Мосгорсуда, Роскомнадзора и рекламодателей:: mosgorsud-torrent[собачка]yandex.ru