Торрент файл
скачать торрент магнет ссылка Добавлен: 28 янв 2012, 11:28
Размер: 4.49 ГБ
Сидеров: 1
Личеров: 4
Автор

СообщениеДобавлено: 28 янв 2012, 11:28 

Не в сети
Супермодератор
Аватара пользователя
Дата регистрации:
14 июн 2010, 21:00
Возраст: 29
Спасибо: 1337 / 1
Сообщения: 5611
Откуда: НиНО
Паутина Шарлотты
Charlotte's Web
[font='Comic Sans MS']«That humble radiant terrific book is now a humble radiant terrific movie.»»[/font]-Страна: США
Жанр: Мультфильм, Мюзикл
Продолжительность: 01:34:11
Год выпуска: 1973
Перевод: Одноголосый закадровый (Доцент)
Русские субтитры: нет
Режиссёр: Чарльз А. Николс / Charles A. Nichols, Ивао Такамото / Iwao Takamoto
Роли озвучивали: Дебби Рейнолдс, Пол Линде, Генри Гибсон, Рекс Аллен, Марта Скотт, Дэйв Мэдден, Дэнни Бонадьюс, Дон Мессик, Херб Вигран, Агнес Мурхед
Описание: Экранизация сказки Элвина Брукса Уайта (Elwyn Brooks White) в которой рассказывается о любви и дружбе между столь разными существами: поросенком Вилбером, девочкой Ферн и паучихой Шарлоттой.- -Доп. информация:Основа - зарубежный DVD5. Собрал и добавил дорожку с озвучкой Доцента.-Рейтинг G - Нет возрастных ограничений
-Использованный софт:
PgcDemux v1.2.0.5 - Разборка DVD на составляющие;
MuxMan 1.2.3 - Сборка DVD для добавления дополнительных дорожек;
BeLight - разборка дорожки;
Sound Forge 6.0 - наложение голоса;
Sonic Encore - сборка дорожки в AC3;
DVDRemake Pro 3.6.3 - сборка проекта.-Бонусы:
- Трейлер
- Игра "Встречайте животных" (Meet the Animals Game). Ребенок должен угадать и выбрать с помощью пульта/мыши животное по издаваемому звуку. Перед началом игры, можно ознакомится с каждым животным. Только одно "но", все на английском...
Меню: Анимированное / Английское / С музыкальным сопровождением
Тип релиза: DVD9 (Custom)
Контейнер: DVD-Video
Сэмпл: ifolder.ru/25515755
Видео: NTSC, 16:9, 720x480, VBR, Auto Letterboxed, ~6516.92 kbps avg, 29,970 fps
Аудио #1: AC3, 2/0 (L,R) ch, 192 kbps (Доцент)
Аудио #2: AC3, 2/0 (L,R) ch, 192 kbps (Оригинал)
Субтитры: английские
DVDInfo
Код:
Title: Temp
Size: 4.49 Gb ( 4 706 200,00 KBytes ) - DVD-9
Enabled regions: 1, 2, 3, 4, 5, 6, 7, 8
VTS_01 :
Play Length: 00:03:42+00:00:00
Video: NTSC 16:9 (720x480) VBR, Auto Letterboxed
Audio:
English (Dolby AC3, 2 ch)
VTS_02 :
Play Length: 01:34:11
Video: NTSC 16:9 (720x480) VBR, Auto Letterboxed
Audio:
Russian, AC3, 2/0 (L,R) ch, 192 kbps, Delay 0 mSec
English, AC3, 2/0 (L,R) ch, 192 kbps, Delay 0 mSec
Subtitles:
English
VTS_03 :
Play Length: 00:00:39+00:00:03+00:00:04+00:00:03+00:00:04+00:00:04+00:00:03+00:00:03+00:00:03+00:00:05+00:00:04+00:00:04+00:00:00
Video: NTSC 4:3 (720x480) VBR
Audio:
English (Dolby AC3, 2 ch)
VTS_04 :
Play Length: 00:00:10
Video: NTSC 16:9 (720x480) VBR, Auto Letterboxed
* Menus Information *
VIDEO_TS Menu
Video:
NTSC 16:9 (720x480) VBR
Auto Pan&Scan
Audio:
Not specified (Dolby AC3, 2 ch)
English Language Unit :
Title Menu
VTS_01 Menu
Video:
NTSC 16:9 (720x480) VBR
Auto Pan&Scan
English Language Unit :
Root Menu
VTS_02 Menu
Video:
NTSC 16:9 (720x480) VBR
Auto Pan&Scan
Audio:
Not specified (Dolby AC3, 2 ch)
English Language Unit :
Root Menu
Subpicture Menu
Audio Menu
Angle menu
Chapter (PTT) Menu
VTS_03 Menu
Video:
NTSC 4:3 (720x480) VBR
Audio:
Not specified (Dolby AC3, 2 ch)
English Language Unit :
Root Menu
Angle menu
VTS_04 Menu
Video:
NTSC 16:9 (720x480) VBR
Auto Pan&Scan, Auto Letterboxed
Audio:
Not specified (Dolby AC3, 2 ch)
English Language Unit :
Root Menu
Информация по источнику
IFO
Общее
Полное имя : D:\Temp\Charlottes Web\VIDEO_TS\VTS_01_0.IFO
Формат : DVD Video
Профиль формата : Program
Размер файла : 18,0 Кбайт
Продолжительность : 3 м. 42 с.
Общий поток : 663 бит/сек
Видео
Идентификатор : 224 (0xE0)
Формат : MPEG Video
Версия формата : Version 2
Продолжительность : 3 м. 42 с.
Вид битрейта : Переменный
Ширина : 720 пикс.
Высота : 480 пикс.
Соотношение сторон : 16:9
Частота кадров : 29,970 кадр/сек
Стандарт вещания : NTSC
Метод сжатия : С потерями
Аудио
Идентификатор : 128 (0x80)
Формат : AC-3
Формат/Информация : Audio Coding 3
Продолжительность : 3 м. 42 с.
Канал(ы) : 2 канала(ов)
Частота : 48,0 КГц
Метод сжатия : С потерями
Язык : English
Меню #1
Продолжительность : 3 м. 42 с.
00:00:00.000 : Chapter 1
00:03:41.800 : Chapter 2
List (Audio) : 0
Меню #2
Продолжительность : 500 мс.
00:00:00.000 : Chapter 1
List (Audio) : 0
Меню #3
VOB_1
Общее
Полное имя : D:\Temp\Charlottes Web\VIDEO_TS\VTS_02_1.VOB
Формат : MPEG-PS
Размер файла : 1024 Мбайт
Продолжительность : 1 м. 12 с.
Общий поток : 118 Мбит/сек
Видео
Идентификатор : 224 (0xE0)
Формат : MPEG Video
Версия формата : Version 2
Профиль формата : Main@Main
Параметр BVOP формата : Да
Параметр матрицы формата : По умолчанию
Продолжительность : 1 м. 12 с.
Вид битрейта : Переменный
Битрейт : 116 Мбит/сек
Номинальный битрейт : 9800 Кбит/сек
Ширина : 720 пикс.
Высота : 480 пикс.
Соотношение сторон : 16:9
Частота кадров : 29,970 кадр/сек
Стандарт вещания : Component
Цветовое пространство : YUV
Подвыборка цветности : 4:2:0
Битовая глубина : 8 бит
Тип развёртки : Чересстрочная
Порядок развёртки : Верхнее поле первое
Метод сжатия : С потерями
Бит/(Пиксели*Кадры) : 11.162
Размер потока : 1002 Мбайт (98%)
Аудио
Идентификатор : 128 (0x80)
Формат : AC-3
Формат/Информация : Audio Coding 3
Расширение режима : CM (complete main)
Продолжительность : 1 м. 12 с.
Вид битрейта : Постоянный
Битрейт : 192 Кбит/сек
Канал(ы) : 2 канала(ов)
Расположение каналов : Front: L R
Частота : 48,0 КГц
Битовая глубина : 16 бит
Метод сжатия : С потерями
Задержка видео : 28 мс.
Размер потока : 1,66 Мбайт (0%)
Текст #1
Идентификатор : 224 (0xE0)-DVD-2
Формат : EIA-608
Режим смешивания : DVD-Video
Режим смешивания, доп. информаци : Muxed in Video #1
Размер потока : 0,00 байт (0%)
Текст #2
Идентификатор : 32 (0x20)
Формат : RLE
Формат/Информация : Run-length encoding
Текст #3
Идентификатор : 34 (0x22)
Формат : RLE
Формат/Информация : Run-length encoding
Меню
VOB_2
Общее
Полное имя : D:\Temp\Charlottes Web\VIDEO_TS\VTS_02_2.VOB
Формат : MPEG-PS
Размер файла : 1024 Мбайт
Видео
Идентификатор : 224 (0xE0)
Формат : MPEG Video
Версия формата : Version 2
Профиль формата : Main@Main
Параметр BVOP формата : Да
Параметр матрицы формата : По умолчанию
Вид битрейта : Переменный
Битрейт : 9800 Кбит/сек
Ширина : 720 пикс.
Высота : 480 пикс.
Соотношение сторон : 16:9
Частота кадров : 29,970 кадр/сек
Стандарт вещания : Component
Цветовое пространство : YUV
Подвыборка цветности : 4:2:0
Битовая глубина : 8 бит
Тип развёртки : Чересстрочная
Порядок развёртки : Верхнее поле первое
Метод сжатия : С потерями
Бит/(Пиксели*Кадры) : 0.946
Аудио
Идентификатор : 128 (0x80)
Формат : AC-3
Формат/Информация : Audio Coding 3
Расширение режима : CM (complete main)
Вид битрейта : Постоянный
Битрейт : 192 Кбит/сек
Канал(ы) : 2 канала(ов)
Расположение каналов : Front: L R
Частота : 48,0 КГц
Битовая глубина : 16 бит
Метод сжатия : С потерями
Задержка видео : -441 мс.
Текст #1
Идентификатор : 32 (0x20)
Формат : RLE
Формат/Информация : Run-length encoding
Задержка видео : 434 мс.
Текст #2
Идентификатор : 34 (0x22)
Формат : RLE
Формат/Информация : Run-length encoding
Задержка видео : 434 мс.
Текст #3
Идентификатор : 224 (0xE0)-DVD-2
Формат : EIA-608
Режим смешивания : DVD-Video
Режим смешивания, доп. информаци : Muxed in Video #1
Размер потока : 0,00 байт (0%)
Меню
VOB_3
Общее
Полное имя : D:\Temp\Charlottes Web\VIDEO_TS\VTS_02_3.VOB
Формат : MPEG-PS
Размер файла : 1024 Мбайт
Продолжительность : 23 м.
Общий поток : 6092 Кбит/сек
Видео
Идентификатор : 224 (0xE0)
Формат : MPEG Video
Версия формата : Version 2
Профиль формата : Main@Main
Параметр BVOP формата : Да
Параметр матрицы формата : По умолчанию
Продолжительность : 23 м.
Вид битрейта : Переменный
Битрейт : 5779 Кбит/сек
Номинальный битрейт : 9800 Кбит/сек
Ширина : 720 пикс.
Высота : 480 пикс.
Соотношение сторон : 16:9
Частота кадров : 29,970 кадр/сек
Стандарт вещания : Component
Цветовое пространство : YUV
Подвыборка цветности : 4:2:0
Битовая глубина : 8 бит
Тип развёртки : Чересстрочная
Порядок развёртки : Верхнее поле первое
Метод сжатия : С потерями
Бит/(Пиксели*Кадры) : 0.558
Размер потока : 971 Мбайт (95%)
Аудио
Идентификатор : 128 (0x80)
Формат : AC-3
Формат/Информация : Audio Coding 3
Расширение режима : CM (complete main)
Продолжительность : 23 м.
Вид битрейта : Постоянный
Битрейт : 192 Кбит/сек
Канал(ы) : 2 канала(ов)
Расположение каналов : Front: L R
Частота : 48,0 КГц
Битовая глубина : 16 бит
Метод сжатия : С потерями
Задержка видео : -280 мс.
Размер потока : 32,3 Мбайт (3%)
Текст #1
Идентификатор : 32 (0x20)
Формат : RLE
Формат/Информация : Run-length encoding
Задержка видео : 5 с. 506 мс.
Текст #2
Идентификатор : 34 (0x22)
Формат : RLE
Формат/Информация : Run-length encoding
Задержка видео : 5 с. 506 мс.
Текст #3
Идентификатор : 224 (0xE0)-DVD-2
Формат : EIA-608
Режим смешивания : DVD-Video
Режим смешивания, доп. информаци : Muxed in Video #1
Размер потока : 0,00 байт (0%)
Меню
VOB_4
Общее
Полное имя : D:\Temp\Charlottes Web\VIDEO_TS\VTS_02_4.VOB
Формат : MPEG-PS
Размер файла : 1024 Мбайт
Продолжительность : 5 м. 31 с.
Общий поток : 25,9 Мбит/сек
Видео
Идентификатор : 224 (0xE0)
Формат : MPEG Video
Версия формата : Version 2
Профиль формата : Main@Main
Параметр BVOP формата : Да
Параметр матрицы формата : По умолчанию
Продолжительность : 5 м. 30 с.
Вид битрейта : Переменный
Битрейт : 25,2 Мбит/сек
Номинальный битрейт : 9800 Кбит/сек
Ширина : 720 пикс.
Высота : 480 пикс.
Соотношение сторон : 16:9
Частота кадров : 29,970 кадр/сек
Стандарт вещания : Component
Цветовое пространство : YUV
Подвыборка цветности : 4:2:0
Битовая глубина : 8 бит
Тип развёртки : Чересстрочная
Порядок развёртки : Верхнее поле первое
Метод сжатия : С потерями
Бит/(Пиксели*Кадры) : 2.437
Размер потока : 996 Мбайт (97%)
Аудио
Идентификатор : 128 (0x80)
Формат : AC-3
Формат/Информация : Audio Coding 3
Расширение режима : CM (complete main)
Продолжительность : 5 м. 31 с.
Вид битрейта : Постоянный
Битрейт : 192 Кбит/сек
Канал(ы) : 2 канала(ов)
Расположение каналов : Front: L R
Частота : 48,0 КГц
Битовая глубина : 16 бит
Метод сжатия : С потерями
Задержка видео : -176 мс.
Размер потока : 7,58 Мбайт (1%)
Текст #1
Идентификатор : 32 (0x20)
Формат : RLE
Формат/Информация : Run-length encoding
Задержка видео : 6 с. 774 мс.
Текст #2
Идентификатор : 34 (0x22)
Формат : RLE
Формат/Информация : Run-length encoding
Задержка видео : 6 с. 774 мс.
Текст #3
Идентификатор : 224 (0xE0)-DVD-2
Формат : EIA-608
Режим смешивания : DVD-Video
Режим смешивания, доп. информаци : Muxed in Video #1
Размер потока : 0,00 байт (0%)
Меню
VOB_5
Общее
Полное имя : D:\Temp\Charlottes Web\VIDEO_TS\VTS_02_5.VOB
Формат : MPEG-PS
Размер файла : 46,9 Мбайт
Продолжительность : 55 с.
Общий поток : 7040 Кбит/сек
Видео
Идентификатор : 224 (0xE0)
Формат : MPEG Video
Версия формата : Version 2
Профиль формата : Main@Main
Параметр BVOP формата : Да
Параметр матрицы формата : По умолчанию
Параметры GOP формата : M=3, N=15
Продолжительность : 55 с.
Вид битрейта : Переменный
Битрейт : 6708 Кбит/сек
Номинальный битрейт : 9800 Кбит/сек
Ширина : 720 пикс.
Высота : 480 пикс.
Соотношение сторон : 16:9
Частота кадров : 29,970 кадр/сек
Стандарт вещания : Component
Цветовое пространство : YUV
Подвыборка цветности : 4:2:0
Битовая глубина : 8 бит
Тип развёртки : Чересстрочная
Порядок развёртки : Верхнее поле первое
Метод сжатия : С потерями
Бит/(Пиксели*Кадры) : 0.648
Размер потока : 44,2 Мбайт (94%)
Аудио
Идентификатор : 128 (0x80)
Формат : AC-3
Формат/Информация : Audio Coding 3
Расширение режима : CM (complete main)
Продолжительность : 55 с.
Вид битрейта : Постоянный
Битрейт : 192 Кбит/сек
Канал(ы) : 2 канала(ов)
Расположение каналов : Front: L R
Частота : 48,0 КГц
Битовая глубина : 16 бит
Метод сжатия : С потерями
Задержка видео : -483 мс.
Размер потока : 1,28 Мбайт (3%)
Текст #1
Идентификатор : 32 (0x20)
Формат : RLE
Формат/Информация : Run-length encoding
Продолжительность : 29 с.
Задержка видео : 15 с.
Текст #2
Идентификатор : 34 (0x22)
Формат : RLE
Формат/Информация : Run-length encoding
Продолжительность : 29 с.
Задержка видео : 15 с.
Текст #3
Идентификатор : 224 (0xE0)-DVD-2
Формат : EIA-608
Режим смешивания : DVD-Video
Режим смешивания, доп. информаци : Muxed in Video #1
Размер потока : 0,00 байт (0%)
Меню
Скриншоты программ
Сборка проекта

Сборка AC3
Скриншоты меню
Скриншоты





реклама партнёра


Вернуться к началу
 Профиль Отправить личное сообщение  
 
   Похожие торренты   Автор   Торрент   Размер 
В этой теме нет новых непрочитанных сообщений. Сперма для Шарлотты / Charlotte au Sperme (2017) WEBRip

salma3

18 | 1

1.36 ГБ

В этой теме нет новых непрочитанных сообщений. Секс на две ночи / Two Night Stand (Макс Николс / Max Nichols) [2014г., мелодрама, комедия, BDRip 720p] MVO

Alfredovich

75 | 9

4.63 ГБ

В этой теме нет новых непрочитанных сообщений. В поисках Дори / Finding Dory (Мультфильм, комедия, приключения, семейный, 2016) DVD9 | Custom

marya111

29 | 18

6.39 ГБ

В этой теме нет новых непрочитанных сообщений. Апачи / Apachen [Вестерн, приключения, 1973] Blu-ray Custom 1080i, Dub+Sub

salma3

54 | 25

22.48 ГБ

В этой теме нет новых непрочитанных сообщений. [HookUpHotShot.com] Charlotte Sartre (Charlotte's Anal Resurrection / 26,05,17) [2017 г., anal, blowjob, cunnilingus, deepthroat, facial, pigtails, natural tits, rimming, shaved, rough, squirting]

salma3

33 | 11

636.12 МБ

В этой теме нет новых непрочитанных сообщений. [HookupHotshot.com] Charlotte Sartre (Charlotte's Anal Resurrection / 26-05-2017) [2017 г., Facial, Blowjob, Deep Throat, Gagging, Sloppy, Spit, Piss In Mouth, Anal, 1080p]

salma3

25 | 8

1.43 ГБ

В этой теме нет новых непрочитанных сообщений. Одарённая / Gifted [Драма, 2017] DVD9, Dub [Custom]

salma3

11 | 8

6.83 ГБ


Начать новую тему Ответить на тему  [ 1 сообщение ] 




Для Мосгорсуда, Роскомнадзора и рекламодателей:: mosgorsud-torrent[собачка]yandex.ru