Торрент файл
скачать торрент магнет ссылка Добавлен: 27 янв 2012, 21:33
Размер: 3.29 ГБ
Сидеров: 3
Личеров: 2
Автор

СообщениеДобавлено: 27 янв 2012, 21:33 

Не в сети
Супермодератор
Аватара пользователя
Дата регистрации:
14 июн 2010, 21:00
Возраст: 28
Спасибо: 1325 / 1
Сообщения: 5644
Откуда: НиНО
Великое путешествие Пуха: В поисках Кристофера Робина
Pooh's Grand Adventure: The Search for Christopher Robin-Страна: США
Жанр: Мюзикл, Приключения, Семейный, Мультфильм
Продолжительность: 01:13:00
Год выпуска: 1997
Перевод: Одноголосый закадровый (Доцент)
Русские субтитры: нет
Режиссёр: Карл Джеерс / Karl Geurs
Роли озвучивали: Джим Каммингс, Джон Фидлер, Кен Сэнсом, Andre Stojka, Питер Каллен, Брэйди Блум, Дэвид Уорнер, Пол Уинчелл, Фрэнки Дж. Джалассо, Стивен Шатцберг-Описание:Винни Пух и Кристофер Робин лучшие друзья, они хотят навсегда сохранить свою дружбу и никогда не расставаться. Однако Кристофер Робин должен пойти в школу, но он так и не смог сказать об этом Пуху. Для того, чтобы предупредить Винни Пуха, Кристофер Робин оставляет горшочек с медом и записку, в которой все объясняет. Пух испачкал записку медом и, при попытке ее прочтения, Сова решила, что Кристофер Робин попал в скулу (которая расположена на черепе) и ему требуется помощь. На помощь Кристоферу Робину отправляется спасательный отряд в составе Пуха, Пятачка, Кролика, Тигры и ослика Иа.- -Доп. информация:Основа - зарубежный DVD5. Удалил все иностранные дорожки, кроме оригинальной и добавил дорожку с озвучкой Доцента. Дорожку собрал лорди74. Меню на диске не работало, взял оболочку главного окна и добавил все недостающее.-Рейтинг G - Нет возрастных ограничений
-Использованный софт:
PgcDemux v1.2.0.5 - Разборка DVD на составляющие;
Sony DVD Architect Pro 5.0b - создание меню, сборка проекта;-Тип релиза: DVD5 (Custom)
Контейнер: DVD-Video
Сэмпл: ifolder.ru/23230363
Видео: PAL 4:3, 720x576, VBR, ~5 443 kbps avg, 25 fps
Аудио #1: AC3, 3/2 (L,C,R,SL,SR)+LFE ch, 384 kbps (Доцент)
Аудио #2: AC3, 3/2 (L,C,R,SL,SR)+LFE ch, 384 kbps (Оригинал)
Субтитры: отсутствуют
Доп. материалы: отсутствуют
DVDInfo
Код:
Title:
VTS_01 :
Play Length: 01:13:00
Video: PAL 4:3 (720x576) VBR
Audio:
Russian, AC3, 3/2 (L,C,R,SL,SR)+LFE ch, 384 kbps, Delay 0 mSec
English, AC3, 3/2 (L,C,R,SL,SR)+LFE ch, 384 kbps, Delay 0 mSec
* Menus Information *
VTS_01 Menu
Video:
PAL 4:3 (720x576) VBR
Audio:
Not specified (Dolby AC3, 6 ch)
English Language Unit :
Root Menu
Chapter (PTT) Menu
Информация по источнику
IFO
General
Complete name : D:\Temp\Pooh's Grand Adventure 1997 (Audio 8x) Marjan TBS\VIDEO_TS\VTS_01_0.IFO
Format : DVD Video
Format profile : Program
File size : 80.0 KiB
Video
ID : 0xE0
Format : MPEG Video
Format version : Version 2
Bit rate mode : Variable
Width : 720 pixels
Height : 576 pixels
Display aspect ratio : 4:3
Frame rate : 25.000 fps
Standard : PAL
Audio #1
ID : 0x80
Format : AC-3
Format/Info : Audio Coding 3
Channel(s) : 6 channels
Sampling rate : 48.0 KHz
Language : English
Audio #2
ID : 0x81
Format : AC-3
Format/Info : Audio Coding 3
Channel(s) : 6 channels
Sampling rate : 48.0 KHz
Language : French
Audio #3
ID : 0x82
Format : AC-3
Format/Info : Audio Coding 3
Channel(s) : 6 channels
Sampling rate : 48.0 KHz
Language : Italian
Audio #4
ID : 0x83
Format : AC-3
Format/Info : Audio Coding 3
Channel(s) : 2 channels
Sampling rate : 48.0 KHz
Language : Dutch
Audio #5
ID : 0x84
Format : AC-3
Format/Info : Audio Coding 3
Channel(s) : 2 channels
Sampling rate : 48.0 KHz
Language : Polish
Audio #6
ID : 0x85
Format : AC-3
Format/Info : Audio Coding 3
Channel(s) : 2 channels
Sampling rate : 48.0 KHz
Language : Greek
Audio #7
ID : 0x86
Format : AC-3
Format/Info : Audio Coding 3
Channel(s) : 2 channels
Sampling rate : 48.0 KHz
Language : Hungarian
Audio #8
ID : 0x87
Format : AC-3
Format/Info : Audio Coding 3
Channel(s) : 2 channels
Sampling rate : 48.0 KHz
Language : Hebrew
Text #1
ID : 0x20
Format : RLE
Format/Info : Run-length encoding
Resolution : 2 bits
Language : English
Text #2
ID : 0x20
Format : RLE
Format/Info : Run-length encoding
Resolution : 2 bits
Language : Dutch
Text #3
ID : 0x20
Format : RLE
Format/Info : Run-length encoding
Resolution : 2 bits
Language : English
Text #4
Format : RLE
Format/Info : Run-length encoding
Resolution : 2 bits
Text #5
Format : RLE
Format/Info : Run-length encoding
Resolution : 2 bits
Text #6
Format : RLE
Format/Info : Run-length encoding
Resolution : 2 bits
Text #7
Format : RLE
Format/Info : Run-length encoding
Resolution : 2 bits
Text #8
Format : RLE
Format/Info : Run-length encoding
Resolution : 2 bits
Text #9
Format : RLE
Format/Info : Run-length encoding
Resolution : 2 bits
Text #10
Format : RLE
Format/Info : Run-length encoding
Resolution : 2 bits
Text #11
Format : RLE
Format/Info : Run-length encoding
Resolution : 2 bits
Text #12
Format : RLE
Format/Info : Run-length encoding
Resolution : 2 bits
Text #13
Format : RLE
Format/Info : Run-length encoding
Resolution : 2 bits
Text #14
Format : RLE
Format/Info : Run-length encoding
Resolution : 2 bits
Text #15
Format : RLE
Format/Info : Run-length encoding
Resolution : 2 bits
Text #16
Format : RLE
Format/Info : Run-length encoding
Resolution : 2 bits
Text #17
Format : RLE
Format/Info : Run-length encoding
Resolution : 2 bits
Text #18
Format : RLE
Format/Info : Run-length encoding
Resolution : 2 bits
Text #19
Format : RLE
Format/Info : Run-length encoding
Resolution : 2 bits
Text #20
Format : RLE
Format/Info : Run-length encoding
Resolution : 2 bits
Text #21
Format : RLE
Format/Info : Run-length encoding
Resolution : 2 bits
Text #22
Format : RLE
Format/Info : Run-length encoding
Resolution : 2 bits
Text #23
Format : RLE
Format/Info : Run-length encoding
Resolution : 2 bits
Text #24
Format : RLE
Format/Info : Run-length encoding
Resolution : 2 bits
Text #25
Format : RLE
Format/Info : Run-length encoding
Resolution : 2 bits
Text #26
Format : RLE
Format/Info : Run-length encoding
Resolution : 2 bits
Text #27
Format : RLE
Format/Info : Run-length encoding
Resolution : 2 bits
Text #28
Format : RLE
Format/Info : Run-length encoding
Resolution : 2 bits
Text #29
Format : RLE
Format/Info : Run-length encoding
Resolution : 2 bits
Text #30
Format : RLE
Format/Info : Run-length encoding
Resolution : 2 bits
Text #31
Format : RLE
Format/Info : Run-length encoding
Resolution : 2 bits
Text #32
Format : RLE
Format/Info : Run-length encoding
Resolution : 2 bits
Menu
List (Audio) : 0 / 1 / 2 / 3 / 4 / 5 / 6 / 7
List (Subtitles 4/3) : 0 / 1 / 2
List (Subtitles Wide) : 0 / 0 / 0
List (Subtitles Letterbox) : 0 / 0 / 0
List (Subtitles Pan&Scan) : 0 / 0 / 0
VOB_0
General
Complete name : D:\Temp\Pooh's Grand Adventure 1997 (Audio 8x) Marjan TBS\VIDEO_TS\VTS_01_0.VOB
Format : MPEG-PS
File size : 5.50 MiB
Duration : 40ms
Overall bit rate : 1 154 Mbps
Video
ID : 224 (0xE0)
Format : MPEG Video
Format version : Version 2
Format profile : Main@Main
Format settings, BVOP : No
Format settings, Matrix : Default
Duration : 40ms
Bit rate mode : Variable
Bit rate : 8 000 Kbps
Width : 720 pixels
Height : 576 pixels
Display aspect ratio : 4:3
Frame rate : 25.000 fps
Standard : PAL
Resolution : 8 bits
Colorimetry : 4:2:0
Scan type : Progressive
Scan order : Top Field First
Bits/(Pixel*Frame) : 0.772
Stream size : 39.1 KiB (1%)
Text
ID : 32 (0x20)
Format : RLE
Format/Info : Run-length encoding
Menu
VOB_1
General
Complete name : D:\Temp\Pooh's Grand Adventure 1997 (Audio 8x) Marjan TBS\VIDEO_TS\VTS_01_1.VOB
Format : MPEG-PS
File size : 1 024 MiB
Duration : 18mn 8s
Overall bit rate : 7 894 Kbps
Video
ID : 224 (0xE0)
Format : MPEG Video
Format version : Version 2
Format profile : Main@Main
Format settings, BVOP : Yes
Format settings, Matrix : Default
Duration : 18mn 8s
Bit rate mode : Variable
Bit rate : 5 469 Kbps
Nominal bit rate : 7 520 Kbps
Width : 720 pixels
Height : 576 pixels
Display aspect ratio : 4:3
Frame rate : 25.000 fps
Standard : PAL
Resolution : 8 bits
Colorimetry : 4:2:0
Scan type : Interlaced
Scan order : Top Field First
Bits/(Pixel*Frame) : 0.527
Stream size : 709 MiB (69%)
Audio #1
ID : 128 (0x80)
Format : AC-3
Format/Info : Audio Coding 3
Duration : 18mn 7s
Bit rate mode : Constant
Bit rate : 384 Kbps
Channel(s) : 6 channels
Channel positions : Front: L C R, Surround: L R, LFE
Sampling rate : 48.0 KHz
Stream size : 49.8 MiB (5%)
Audio #2
ID : 129 (0x81)
Format : AC-3
Format/Info : Audio Coding 3
Duration : 18mn 7s
Bit rate mode : Constant
Bit rate : 384 Kbps
Channel(s) : 6 channels
Channel positions : Front: L C R, Surround: L R, LFE
Sampling rate : 48.0 KHz
Stream size : 49.8 MiB (5%)
Audio #3
ID : 130 (0x82)
Format : AC-3
Format/Info : Audio Coding 3
Duration : 18mn 7s
Bit rate mode : Constant
Bit rate : 384 Kbps
Channel(s) : 6 channels
Channel positions : Front: L C R, Surround: L R, LFE
Sampling rate : 48.0 KHz
Stream size : 49.8 MiB (5%)
Audio #4
ID : 131 (0x83)
Format : AC-3
Format/Info : Audio Coding 3
Format profile : Dolby Digital
Duration : 18mn 7s
Bit rate mode : Constant
Bit rate : 192 Kbps
Channel(s) : 2 channels
Channel positions : L R
Sampling rate : 48.0 KHz
Stream size : 24.9 MiB (2%)
Audio #5
ID : 132 (0x84)
Format : AC-3
Format/Info : Audio Coding 3
Format profile : Dolby Digital
Duration : 18mn 7s
Bit rate mode : Constant
Bit rate : 192 Kbps
Channel(s) : 2 channels
Channel positions : L R
Sampling rate : 48.0 KHz
Stream size : 24.9 MiB (2%)
Audio #6
ID : 133 (0x85)
Format : AC-3
Format/Info : Audio Coding 3
Format profile : Dolby Digital
Duration : 18mn 7s
Bit rate mode : Constant
Bit rate : 192 Kbps
Channel(s) : 2 channels
Channel positions : L R
Sampling rate : 48.0 KHz
Stream size : 24.9 MiB (2%)
Audio #7
ID : 134 (0x86)
Format : AC-3
Format/Info : Audio Coding 3
Format profile : Dolby Digital
Duration : 18mn 7s
Bit rate mode : Constant
Bit rate : 192 Kbps
Channel(s) : 2 channels
Channel positions : L R
Sampling rate : 48.0 KHz
Stream size : 24.9 MiB (2%)
Audio #8
ID : 135 (0x87)
Format : AC-3
Format/Info : Audio Coding 3
Format profile : Dolby Digital
Duration : 18mn 7s
Bit rate mode : Constant
Bit rate : 192 Kbps
Channel(s) : 2 channels
Channel positions : L R
Sampling rate : 48.0 KHz
Stream size : 24.9 MiB (2%)
Text #1
ID : 32 (0x20)
Format : RLE
Format/Info : Run-length encoding
Text #2
ID : 33 (0x21)
Format : RLE
Format/Info : Run-length encoding
Text #3
ID : 34 (0x22)
Format : RLE
Format/Info : Run-length encoding
Menu
VOB_2
General
Complete name : D:\Temp\Pooh's Grand Adventure 1997 (Audio 8x) Marjan TBS\VIDEO_TS\VTS_01_2.VOB
Format : MPEG-PS
File size : 1 024 MiB
Duration : 17mn 26s
Overall bit rate : 8 212 Kbps
Video
ID : 224 (0xE0)
Format : MPEG Video
Format version : Version 2
Format profile : Main@Main
Format settings, BVOP : Yes
Format settings, Matrix : Default
Duration : 17mn 25s
Bit rate mode : Variable
Bit rate : 5 774 Kbps
Nominal bit rate : 7 520 Kbps
Width : 720 pixels
Height : 576 pixels
Display aspect ratio : 4:3
Frame rate : 25.000 fps
Standard : PAL
Resolution : 8 bits
Colorimetry : 4:2:0
Scan type : Interlaced
Scan order : Top Field First
Bits/(Pixel*Frame) : 0.557
Stream size : 720 MiB (70%)
Audio #1
ID : 128 (0x80)
Format : AC-3
Format/Info : Audio Coding 3
Duration : 17mn 26s
Bit rate mode : Constant
Bit rate : 384 Kbps
Channel(s) : 6 channels
Channel positions : Front: L C R, Surround: L R, LFE
Sampling rate : 48.0 KHz
Video delay : -576ms
Stream size : 47.9 MiB (5%)
Audio #2
ID : 129 (0x81)
Format : AC-3
Format/Info : Audio Coding 3
Duration : 17mn 26s
Bit rate mode : Constant
Bit rate : 384 Kbps
Channel(s) : 6 channels
Channel positions : Front: L C R, Surround: L R, LFE
Sampling rate : 48.0 KHz
Video delay : -576ms
Stream size : 47.9 MiB (5%)
Audio #3
ID : 130 (0x82)
Format : AC-3
Format/Info : Audio Coding 3
Duration : 17mn 26s
Bit rate mode : Constant
Bit rate : 384 Kbps
Channel(s) : 6 channels
Channel positions : Front: L C R, Surround: L R, LFE
Sampling rate : 48.0 KHz
Video delay : -608ms
Stream size : 47.9 MiB (5%)
Audio #4
ID : 131 (0x83)
Format : AC-3
Format/Info : Audio Coding 3
Format profile : Dolby Digital
Duration : 17mn 26s
Bit rate mode : Constant
Bit rate : 192 Kbps
Channel(s) : 2 channels
Channel positions : L R
Sampling rate : 48.0 KHz
Video delay : -576ms
Stream size : 23.9 MiB (2%)
Audio #5
ID : 132 (0x84)
Format : AC-3
Format/Info : Audio Coding 3
Format profile : Dolby Digital
Duration : 17mn 26s
Bit rate mode : Constant
Bit rate : 192 Kbps
Channel(s) : 2 channels
Channel positions : L R
Sampling rate : 48.0 KHz
Video delay : -576ms
Stream size : 23.9 MiB (2%)
Audio #6
ID : 133 (0x85)
Format : AC-3
Format/Info : Audio Coding 3
Format profile : Dolby Digital
Duration : 17mn 26s
Bit rate mode : Constant
Bit rate : 192 Kbps
Channel(s) : 2 channels
Channel positions : L R
Sampling rate : 48.0 KHz
Video delay : -576ms
Stream size : 23.9 MiB (2%)
Audio #7
ID : 134 (0x86)
Format : AC-3
Format/Info : Audio Coding 3
Format profile : Dolby Digital
Duration : 17mn 26s
Bit rate mode : Constant
Bit rate : 192 Kbps
Channel(s) : 2 channels
Channel positions : L R
Sampling rate : 48.0 KHz
Video delay : -576ms
Stream size : 23.9 MiB (2%)
Audio #8
ID : 135 (0x87)
Format : AC-3
Format/Info : Audio Coding 3
Format profile : Dolby Digital
Duration : 17mn 26s
Bit rate mode : Constant
Bit rate : 192 Kbps
Channel(s) : 2 channels
Channel positions : L R
Sampling rate : 48.0 KHz
Video delay : -576ms
Stream size : 23.9 MiB (2%)
Text #1
ID : 32 (0x20)
Format : RLE
Format/Info : Run-length encoding
Video delay : 920ms
Text #2
ID : 33 (0x21)
Format : RLE
Format/Info : Run-length encoding
Video delay : 1s 480ms
Text #3
ID : 34 (0x22)
Format : RLE
Format/Info : Run-length encoding
Video delay : 920ms
Menu
VOB_3
General
Complete name : D:\Temp\Pooh's Grand Adventure 1997 (Audio 8x) Marjan TBS\VIDEO_TS\VTS_01_3.VOB
Format : MPEG-PS
File size : 1 024 MiB
Duration : 18mn 55s
Overall bit rate : 7 568 Kbps
Video
ID : 224 (0xE0)
Format : MPEG Video
Format version : Version 2
Format profile : Main@Main
Format settings, BVOP : Yes
Format settings, Matrix : Default
Duration : 18mn 54s
Bit rate mode : Variable
Bit rate : 5 155 Kbps
Nominal bit rate : 7 520 Kbps
Width : 720 pixels
Height : 576 pixels
Display aspect ratio : 4:3
Frame rate : 25.000 fps
Standard : PAL
Resolution : 8 bits
Colorimetry : 4:2:0
Scan type : Interlaced
Scan order : Top Field First
Bits/(Pixel*Frame) : 0.497
Stream size : 697 MiB (68%)
Audio #1
ID : 128 (0x80)
Format : AC-3
Format/Info : Audio Coding 3
Duration : 18mn 55s
Bit rate mode : Constant
Bit rate : 384 Kbps
Channel(s) : 6 channels
Channel positions : Front: L C R, Surround: L R, LFE
Sampling rate : 48.0 KHz
Video delay : -608ms
Stream size : 52.0 MiB (5%)
Audio #2
ID : 129 (0x81)
Format : AC-3
Format/Info : Audio Coding 3
Duration : 18mn 55s
Bit rate mode : Constant
Bit rate : 384 Kbps
Channel(s) : 6 channels
Channel positions : Front: L C R, Surround: L R, LFE
Sampling rate : 48.0 KHz
Video delay : -608ms
Stream size : 52.0 MiB (5%)
Audio #3
ID : 130 (0x82)
Format : AC-3
Format/Info : Audio Coding 3
Duration : 18mn 55s
Bit rate mode : Constant
Bit rate : 384 Kbps
Channel(s) : 6 channels
Channel positions : Front: L C R, Surround: L R, LFE
Sampling rate : 48.0 KHz
Video delay : -608ms
Stream size : 52.0 MiB (5%)
Audio #4
ID : 131 (0x83)
Format : AC-3
Format/Info : Audio Coding 3
Format profile : Dolby Digital
Duration : 18mn 55s
Bit rate mode : Constant
Bit rate : 192 Kbps
Channel(s) : 2 channels
Channel positions : L R
Sampling rate : 48.0 KHz
Video delay : -512ms
Stream size : 26.0 MiB (3%)
Audio #5
ID : 132 (0x84)
Format : AC-3
Format/Info : Audio Coding 3
Format profile : Dolby Digital
Duration : 18mn 55s
Bit rate mode : Constant
Bit rate : 192 Kbps
Channel(s) : 2 channels
Channel positions : L R
Sampling rate : 48.0 KHz
Video delay : -512ms
Stream size : 26.0 MiB (3%)
Audio #6
ID : 133 (0x85)
Format : AC-3
Format/Info : Audio Coding 3
Format profile : Dolby Digital
Duration : 18mn 55s
Bit rate mode : Constant
Bit rate : 192 Kbps
Channel(s) : 2 channels
Channel positions : L R
Sampling rate : 48.0 KHz
Video delay : -512ms
Stream size : 26.0 MiB (3%)
Audio #7
ID : 134 (0x86)
Format : AC-3
Format/Info : Audio Coding 3
Format profile : Dolby Digital
Duration : 18mn 55s
Bit rate mode : Constant
Bit rate : 192 Kbps
Channel(s) : 2 channels
Channel positions : L R
Sampling rate : 48.0 KHz
Video delay : -512ms
Stream size : 26.0 MiB (3%)
Audio #8
ID : 135 (0x87)
Format : AC-3
Format/Info : Audio Coding 3
Format profile : Dolby Digital
Duration : 18mn 55s
Bit rate mode : Constant
Bit rate : 192 Kbps
Channel(s) : 2 channels
Channel positions : L R
Sampling rate : 48.0 KHz
Video delay : -512ms
Stream size : 26.0 MiB (3%)
Text #1
ID : 32 (0x20)
Format : RLE
Format/Info : Run-length encoding
Video delay : -40ms
Text #2
ID : 33 (0x21)
Format : RLE
Format/Info : Run-length encoding
Video delay : 320ms
Text #3
ID : 34 (0x22)
Format : RLE
Format/Info : Run-length encoding
Menu
VOB_4
General
Complete name : D:\Temp\Pooh's Grand Adventure 1997 (Audio 8x) Marjan TBS\VIDEO_TS\VTS_01_4.VOB
Format : MPEG-PS
File size : 1 022 MiB
Duration : 18mn 30s
Overall bit rate : 7 716 Kbps
Video
ID : 224 (0xE0)
Format : MPEG Video
Format version : Version 2
Format profile : Main@Main
Format settings, BVOP : Yes
Format settings, Matrix : Default
Duration : 18mn 30s
Bit rate mode : Variable
Bit rate : 5 298 Kbps
Nominal bit rate : 7 520 Kbps
Width : 720 pixels
Height : 576 pixels
Display aspect ratio : 4:3
Frame rate : 25.000 fps
Standard : PAL
Resolution : 8 bits
Colorimetry : 4:2:0
Scan type : Interlaced
Scan order : Top Field First
Bits/(Pixel*Frame) : 0.511
Stream size : 702 MiB (69%)
Audio #1
ID : 128 (0x80)
Format : AC-3
Format/Info : Audio Coding 3
Duration : 18mn 29s
Bit rate mode : Constant
Bit rate : 384 Kbps
Channel(s) : 6 channels
Channel positions : Front: L C R, Surround: L R, LFE
Sampling rate : 48.0 KHz
Video delay : -664ms
Stream size : 50.8 MiB (5%)
Audio #2
ID : 129 (0x81)
Format : AC-3
Format/Info : Audio Coding 3
Duration : 18mn 29s
Bit rate mode : Constant
Bit rate : 384 Kbps
Channel(s) : 6 channels
Channel positions : Front: L C R, Surround: L R, LFE
Sampling rate : 48.0 KHz
Video delay : -664ms
Stream size : 50.8 MiB (5%)
Audio #3
ID : 130 (0x82)
Format : AC-3
Format/Info : Audio Coding 3
Duration : 18mn 29s
Bit rate mode : Constant
Bit rate : 384 Kbps
Channel(s) : 6 channels
Channel positions : Front: L C R, Surround: L R, LFE
Sampling rate : 48.0 KHz
Video delay : -664ms
Stream size : 50.8 MiB (5%)
Audio #4
ID : 131 (0x83)
Format : AC-3
Format/Info : Audio Coding 3
Format profile : Dolby Digital
Duration : 18mn 29s
Bit rate mode : Constant
Bit rate : 192 Kbps
Channel(s) : 2 channels
Channel positions : L R
Sampling rate : 48.0 KHz
Video delay : -600ms
Stream size : 25.4 MiB (2%)
Audio #5
ID : 132 (0x84)
Format : AC-3
Format/Info : Audio Coding 3
Format profile : Dolby Digital
Duration : 18mn 29s
Bit rate mode : Constant
Bit rate : 192 Kbps
Channel(s) : 2 channels
Channel positions : L R
Sampling rate : 48.0 KHz
Video delay : -600ms
Stream size : 25.4 MiB (2%)
Audio #6
ID : 133 (0x85)
Format : AC-3
Format/Info : Audio Coding 3
Format profile : Dolby Digital
Duration : 18mn 29s
Bit rate mode : Constant
Bit rate : 192 Kbps
Channel(s) : 2 channels
Channel positions : L R
Sampling rate : 48.0 KHz
Video delay : -600ms
Stream size : 25.4 MiB (2%)
Audio #7
ID : 134 (0x86)
Format : AC-3
Format/Info : Audio Coding 3
Format profile : Dolby Digital
Duration : 18mn 29s
Bit rate mode : Constant
Bit rate : 192 Kbps
Channel(s) : 2 channels
Channel positions : L R
Sampling rate : 48.0 KHz
Video delay : -600ms
Stream size : 25.4 MiB (2%)
Audio #8
ID : 135 (0x87)
Format : AC-3
Format/Info : Audio Coding 3
Format profile : Dolby Digital
Duration : 18mn 29s
Bit rate mode : Constant
Bit rate : 192 Kbps
Channel(s) : 2 channels
Channel positions : L R
Sampling rate : 48.0 KHz
Video delay : -600ms
Stream size : 25.4 MiB (2%)
Menu
Скриншоты из программ
Сборка проекта
Скриншоты меню
Скриншоты




реклама партнёра


Вернуться к началу
 Профиль Отправить личное сообщение  
 
   Похожие торренты   Автор   Торрент   Размер 
В этой теме нет новых непрочитанных сообщений. Бэтмен против Робина / Batman vs. Robin (Джей Олива) [Мультфильм, боевик, приключения, 2015] HDRip, mvo [Чистый звук]

Dracon

101 | 6

1.37 ГБ

В этой теме нет новых непрочитанных сообщений. Бэтмен против Робина / Batman vs. Robin (Джей Олива) [Мультфильм, боевик, приключения, 2015] BDRip 720p, mvo [Чистый звук]

Dracon

43 | 2

2.26 ГБ

В этой теме нет новых непрочитанных сообщений. В поисках Дори / Finding Dory (Мультфильм, комедия, приключения, семейный, 2016) DVD9 | Custom

marya111

29 | 18

6.39 ГБ

В этой теме нет новых непрочитанных сообщений. Путешествие Гектора в поисках счастья / Hector and the Search for Happiness (Питер Челсом) [Драма, комедия, приключения, 2014] HDRip, Dub [iTunes]

Dracon

108 | 4

1.46 ГБ

В этой теме нет новых непрочитанных сообщений. Путешествие Гектора в поисках счастья / Hector and the Search for Happiness (Питер Челсом) [Драма, комедия, приключения, 2014] HDRip, Dub [iTunes]

Dracon

5 | 5

2.06 ГБ

В этой теме нет новых непрочитанных сообщений. Путешествие Гектора в поисках счастья / Hector and the Search for Happiness (Питер Челсом) [Драма, комедия, приключения, 2014] BDRip 720p, Dub [iTunes]

Dracon

22 | 6

4.68 ГБ

В этой теме нет новых непрочитанных сообщений. Приключения Кристофера в волшебном лесу / O Grilo Feliz [мультфильм, мюзикл, фэнтези, 2001] DVDRip, Mvo

salma3

18 | 4

1.46 ГБ


Начать новую тему Ответить на тему  [ 1 сообщение ] 




Для Мосгорсуда, Роскомнадзора и рекламодателей:: mosgorsud-torrent[собачка]yandex.ru