Торрент файл
скачать торрент магнет ссылка Добавлен: 25 янв 2012, 21:41
Размер: 5.31 ГБ
Сидеров: 14
Личеров: 8
Автор

СообщениеДобавлено: 25 янв 2012, 21:41 

Не в сети
Супермодератор
Аватара пользователя
Дата регистрации:
14 июн 2010, 21:00
Возраст: 29
Спасибо: 1337 / 1
Сообщения: 5611
Откуда: НиНО
-Смурфики / The Smurfs-«Какого 'смурфа' мы тут делаем?»-Страна: США
Студия: Columbia Pictures, Kerner Entertainment Company, Sony Pictures Animation
Жанр: мультфильм, фэнтези, комедия, приключения, семейный
Год выпуска: 2011
Мировая премьера: 11 июля 2011
Российская премьера: 11 августа 2011, «WDSSPR» 3D
Дата выхода DVD: 27 сентября 2011, «Columbia/Sony»
Дата выхода Blu-Ray: 27 сентября 2011, «Columbia/Sony»
Продолжительность: 01:38:41
Перевод: Профессиональный (дублированный) [Лицензия]
Cубтитры: нет-Режиссер: Раджа Госнелл / Raja Gosnell-В ролях: Хэнк Азария, Нил Патрик Харрис, Джейма Мейс, София Вергара, Джонатан Уинтерс, Алан Камминг, Кэти Перри, Фред Армизен, Джордж Лопез, Антон Ельчин-Описание: По сюжету, спасаясь от злого волшебника Гаргамеля, крошечные смурфики оказываются за пределами родной деревни. Из своего волшебного мира они попадают прямиком в наш мир, а именно в Центральный парк города Нью-Йорк. Теперь маленьким отважным смурфикам предстоит отыскать дорогу домой и не попасть в лапы Гаргамеля.
-Бонусы: нет- -Качество: DVD9 R5
Формат: DVD-Video
Видео кодек: MPEG2
Аудио кодек: AC3
Видео: PAL 16:9 (720x576(0.693)) MPEG Video, 25,000 кадр/сек, 7181 Кбит/сек
Аудио #1: Russian (Dolby AC3, 6 ch) 448 Кбит/сек, 48,0 КГц
Аудио #2: Ukrainian (Dolby AC3, 6 ch) 384 Кбит/сек, 48,0 КГц-
-
DVDInfo
Title: Рабочий
Size: 5.31 Gb ( 5 567 390 KBytes ) - DVD-9
Enabled regions: 1, 2, 3, 4, 5, 6, 7, 8
VTS_01 :
Play Length: 01:38:41
Video: PAL 16:9 (720x576) VBR, Auto Letterboxed
Audio:
Russian (Dolby AC3, 6 ch)
Ukrainian (Dolby AC3, 6 ch)
Subtitles:
Russian
Menu Video:
PAL 16:9 (720x576) VBR
Auto Letterboxed
Menu Audio:
Not specified (Dolby AC3, 6 ch)
Menu Subtitles:
Not specified
Menu Russian Language Unit :
Root Menu
Audio Menu
Chapter (PTT) Menu
MediaInfo
Общее
Полное имя : G:\Новинки 2011\Smurfiki.2011.DVD9\VIDEO_TS\VTS_01_1.VOB
Формат : MPEG-PS
Размер файла : 1024 Мбайт
Продолжительность : 17 м.
Общий поток : 8175 Кбит/сек
Видео
Идентификатор : 224 (0xE0)
Формат : MPEG Video
Версия формата : Version 2
Профиль формата : Main@Main
Параметр BVOP формата : Да
Параметр матрицы формата : Выборочная
Продолжительность : 17 м.
Вид битрейта : Переменный
Битрейт : 7181 Кбит/сек
Максимальный битрейт : 9000 Кбит/сек
Ширина : 720 пикселей
Высота : 576 пикселей
Соотношение сторон : 16:9
Частота кадров : 25,000 кадров/сек
Стандарт вещания : PAL
Цветовое пространство : YUV
Субдискретизация насыщенности : 4:2:0
Битовая глубина : 8 бит
Тип развёртки : Прогрессивная
Порядок развёртки : Верхнее поле первое
Метод сжатия : С потерями
Бит/(Пиксели*Кадры) : 0.693
Размер потока : 899 Мбайт (88%)
Аудио #1
Идентификатор : 189 (0xBD)-128 (0x80)
Формат : AC-3
Формат/Информация : Audio Coding 3
Расширение режима : CM (complete main)
Режим смешивания : DVD-Video
Продолжительность : 17 м.
Вид битрейта : Постоянный
Битрейт : 448 Кбит/сек
Каналы : 6 каналов
Расположение каналов : Front: L C R, Side: L R, LFE
Частота : 48,0 КГц
Битовая глубина : 16 бит
Метод сжатия : С потерями
Размер потока : 56,1 Мбайт (5%)
Аудио #2
Идентификатор : 189 (0xBD)-129 (0x81)
Формат : AC-3
Формат/Информация : Audio Coding 3
Расширение режима : CM (complete main)
Режим смешивания : DVD-Video
Продолжительность : 17 м.
Вид битрейта : Постоянный
Битрейт : 384 Кбит/сек
Каналы : 6 каналов
Расположение каналов : Front: L C R, Side: L R, LFE
Частота : 48,0 КГц
Битовая глубина : 16 бит
Метод сжатия : С потерями
Размер потока : 48,1 Мбайт (5%)
Скриншоты меню
Скриншоты мультфильма
-
-Раздача от группы:




реклама партнёра


Вернуться к началу
 Профиль Отправить личное сообщение  
 
   Похожие торренты   Автор   Торрент   Размер 
В этой теме нет новых непрочитанных сообщений. Смурфики 2 / The Smurfs 2 [мультфильм, фэнтези, комедия, 2013] BDRip 2160p, Dub

salma3

2 | 3

34.61 ГБ

В этой теме нет новых непрочитанных сообщений. Смурфики: Затерянная деревня / Smurfs: The Lost Village [мультфильм, фэнтези, комедия, 2017] TS, Dub

salma3

3253 | 303

1.37 ГБ

В этой теме нет новых непрочитанных сообщений. Смурфики: Затерянная деревня / Smurfs: The Lost Village [мультфильм, фэнтези, комедия, 2017] Blu-Ray CEE 1080p, Dub [Лицензия]

salma3

6 | 22

32.78 ГБ

В этой теме нет новых непрочитанных сообщений. Смурфики: Затерянная деревня / Smurfs: The Lost Village [Мультфильм, фэнтези, комедия, 2017] BDRip, Dub [Лицензия]

salma3

613 | 54

1.46 ГБ

В этой теме нет новых непрочитанных сообщений. Смурфики: Затерянная деревня / Smurfs: The Lost Village [Мультфильм, фэнтези, комедия, 2017] BDRip 720p, Dub [Лицензия]

salma3

68 | 15

6.18 ГБ

В этой теме нет новых непрочитанных сообщений. Смурфики: Затерянная деревня / Smurfs: The Lost Village [Мультфильм, фэнтези, комедия, 2017] BDRip 1080p, Dub [3D-Video] [iTunes]

salma3

85 | 48

7.26 ГБ

В этой теме нет новых непрочитанных сообщений. Смурфы / Smurfs [S01-09] [фэнтези, семейный, мультфильм, 1981-1990] SATRip, Mvo

salma3

60 | 45

84.8 ГБ


Начать новую тему Ответить на тему  [ 1 сообщение ] 




Для Мосгорсуда, Роскомнадзора и рекламодателей:: mosgorsud-torrent[собачка]yandex.ru