Торрент файл
скачать торрент магнет ссылка Добавлен: 25 янв 2012, 21:41
Размер: 4.62 ГБ
Сидеров: 1
Личеров: 2
Автор

СообщениеДобавлено: 25 янв 2012, 21:41 

Не в сети
Супермодератор
Аватара пользователя
Дата регистрации:
14 июн 2010, 21:00
Возраст: 28
Спасибо: 1324 / 1
Сообщения: 5644
Откуда: НиНО
Спасатели в Австралии / The Rescuers Down Under
Год выпуска: 1990
Страна: США, Walt Disney Pictures
Жанр: Мультфильм, семейный, приключения
Продолжительность: 01:13:58
Перевод: Профессиональный (полное дублирование)
Русские субтитры: есть
Режиссер: Гендель Батой, Майк Гайбриэль / Hendel Butoy, Mike Gabriel
Описание: Приготовьтесь к захватывающим и стремительным приключениям в самом сердце Австралии в анимационной классике Диснея "Спасатели в Австралии"!
Далеко в необъятных и непредсказуемых прериях Австралии мальчик по имени Коди подружился с великим золотым орлом. Когда безжалостный браконьер решает поймать орла, Коди вступает на защиту друга. Зная, что ему не справиться в одиночку, он подает зов помощи, на который сразу реагируют две самые храбрые мышки Бернард и Бьянка. Спеша на помощь на крыльях своего веселого друга, альбатроса Вилбура, эти два суперагента готовы выполнить свою самую большую и самую опасную миссию!
Поприветствуйте классическое приключение Диснея, полное незабываемых героев, согревающей дружбы и великолепной анимации - наслаждение, которое полюбит вся ваша семья!
Дополнительные материалы:
Рассказ о создании "Спасателей в Австралии"
Мультфильм "Микки и Плуто в Австралии"
Мультфильм "Дядя Дак"
Поем вместе
Доп. информация: Сиквел мультфильма "Спасатели". Это первый мультфильм, целиком изготовленный на компьютере (использовалась аутентичная студийная компьютерная система производства анимации CAPS).
Качество: DVD9
Формат: DVD-Video
Видео: PAL 16:9 (720x576) VBR
Аудио: Русский (Dolby AC3, 2 ch), английский (Dolby AC3, 6 ch), чешский (Dolby AC3, 2 ch), венгерский (Dolby AC3, 2 ch), польский (Dolby AC3, 2 ch), греческий (Dolby AC3, 2 ch)
Субтитры:Русские, английские, чешские, венгерские, польские, греческие, турецкие, румынские
DVDInfo
Код:
Title: Spasateli.v.Avstralii.1990.DVD-9
Size: 4.62 Gb ( 4 847 144,00 KBytes ) - DVD-9
Enabled regions: 1, 2, 3, 4, 5, 6, 7, 8
VTS_01 :
Play Length: 01:13:58
Video: PAL 16:9 (720x576) VBR, Auto Letterboxed
Audio:
English (Dolby AC3, 6 ch)
Polish (Dolby AC3, 2 ch)
Czech(Ceske) (Dolby AC3, 2 ch)
Magyar (Dolby AC3, 2 ch)
Greek (Dolby AC3, 2 ch)
Russian (Dolby AC3, 2 ch)
Subtitles:
English
Polish
Czech(Ceske)
Magyar
Greek
Russian
Romanian
Turkish
English
Polish
Czech(Ceske)
Magyar
Greek
Russian
VTS_02 :
Play Length: 00:00:11
Video: PAL 16:9 (720x576) VBR, Auto Pan&Scan
Audio:
Not specified (Dolby AC3, 6 ch)
VTS_03 :
Play Length: 00:00:00+{00:00:00}+00:00:05+00:00:05+00:00:05+{00:00:05}+00:00:05+00:00:05+00:00:05+00:00:05+00:00:05
Video: PAL 16:9 (720x576) VBR, Auto Pan&Scan
VTS_04 :
Play Length: 00:00:00+{00:00:00}+{00:00:00}+{00:00:00}+00:00:00
Video: PAL 16:9 (720x576) VBR, Auto Letterboxed
VTS_05 :
Play Length: 00:00:00+00:00:18+00:00:18+00:00:18+{00:00:18}+00:00:18+{00:00:18}+{00:00:18}+00:00:19+{00:00:18}
Video: PAL 16:9 (720x576) VBR, Auto Letterboxed
Audio:
Not specified (Dolby AC3, 6 ch)
VTS_06 :
Play Length: 00:00:07
Video: PAL 16:9 (720x576) VBR, Auto Pan&Scan
Audio:
Not specified (Dolby AC3, 2 ch)
Subtitles:
Not specified
VTS_07 :
Play Length: 00:10:34+00:06:40
Video: PAL 4:3 (720x576) VBR
Audio:
English (Dolby AC3, 2 ch)
Subtitles:
Polish
Czech(Ceske)
Magyar
Greek
Russian
Romanian
Turkish
VTS_08 :
Play Length: 00:06:41
Video: PAL 4:3 (720x576) VBR
Audio:
English (Dolby AC3, 2 ch)
Polish (Dolby AC3, 2 ch)
Subtitles:
Czech(Ceske)
Magyar
Greek
Russian
Romanian
Turkish
VTS_09 :
Play Length: 00:01:20
Video: PAL 4:3 (720x576) VBR
Audio:
English (Dolby AC3, 2 ch)
* Menus Information *
VIDEO_TS Menu
Video:
PAL 4:3 (720x576) VBR
English Language Unit :
Title Menu
VTS_01 Menu
Video:
PAL 16:9 (720x576) VBR
Auto Letterboxed
English Language Unit :
Root Menu
Angle menu
VTS_02 Menu
Video:
NTSC 4:3 (720x480) VBR
Auto Pan&Scan, Auto Letterboxed
English Language Unit :
Root Menu
VTS_03 Menu
Video:
PAL 16:9 (720x576) VBR
Auto Pan&Scan
English Language Unit :
Root Menu
Angle menu
VTS_04 Menu
Video:
NTSC 4:3 (720x480) VBR
Auto Pan&Scan, Auto Letterboxed
English Language Unit :
Root Menu
VTS_05 Menu
Video:
NTSC 4:3 (720x480) VBR
Auto Pan&Scan, Auto Letterboxed
English Language Unit :
Root Menu
VTS_06 Menu
Video:
PAL 16:9 (720x576) VBR
Auto Pan&Scan
English Language Unit :
Root Menu
Angle menu
VTS_07 Menu
Video:
NTSC 4:3 (720x480) VBR
Auto Pan&Scan, Auto Letterboxed
English Language Unit :
Root Menu
VTS_08 Menu
Video:
NTSC 4:3 (720x480) VBR
Auto Pan&Scan, Auto Letterboxed
English Language Unit :
Root Menu
VTS_09 Menu
Video:
NTSC 4:3 (720x480) VBR
Auto Pan&Scan, Auto Letterboxed
English Language Unit :
Root Menu
MediaInfo
Код:
Общее
Полное имя: U:\Спасатели в Австралии\Spasateli.v.Avstralii.1990.DVD-9\VIDEO_TS\VTS_01_2.VOB
Формат: MPEG-PS
Размер файла: 1024 Мбайт
Продолжительность: 19 м.
Общий поток: 7468 Кбит/сек
Видео
Идентификатор: 224 (0xE0)
Формат: MPEG Video
Версия формата: Version 2
Профиль формата: Main@Main
Параметр BVOP формата: Да
Параметр матрицы формата: По умолчанию
Продолжительность: 19 м.
Вид битрейта: Переменный
Битрейт: 5976 Кбит/сек
Номинальный битрейт: 9800 Кбит/сек
Ширина: 720 пикс.
Высота: 576 пикс.
Соотношение сторон: 16:9
Частота кадров: 25,000 кадр/сек
Стандарт вещания: PAL
Цветовое пространство: YUV
Подвыборка цветности: 4:2:0
Битовая глубина: 8 бит
Тип развёртки: Прогрессивная
Порядок развёртки: Верхнее поле первое
Метод сжатия: С потерями
Бит/(Пиксели*Кадры): 0.576
Размер потока: 819 Мбайт (80%)
Аудио #1
Идентификатор: 128 (0x80)
Формат: AC-3
Формат/Информация: Audio Coding 3
Расширение режима: CM (complete main)
Продолжительность: 19 м.
Вид битрейта: Постоянный
Битрейт: 384 Кбит/сек
Канал(ы): 6 канала(ов)
Расположение каналов: Front: L C R, Side: L R, LFE
Частота: 48,0 КГц
Битовая глубина: 16 бит
Метод сжатия: С потерями
Задержка видео: -600 мс.
Размер потока: 52,7 Мбайт (5%)
Аудио #2
Идентификатор: 129 (0x81)
Формат: AC-3
Формат/Информация: Audio Coding 3
Профиль формата: Dolby Digital
Расширение режима: CM (complete main)
Продолжительность: 19 м.
Вид битрейта: Постоянный
Битрейт: 192 Кбит/сек
Канал(ы): 2 канала(ов)
Расположение каналов: Front: L R
Частота: 48,0 КГц
Битовая глубина: 16 бит
Метод сжатия: С потерями
Задержка видео: -504 мс.
Размер потока: 26,3 Мбайт (3%)
Аудио #3
Идентификатор: 130 (0x82)
Формат: AC-3
Формат/Информация: Audio Coding 3
Профиль формата: Dolby Digital
Расширение режима: CM (complete main)
Продолжительность: 19 м.
Вид битрейта: Постоянный
Битрейт: 192 Кбит/сек
Канал(ы): 2 канала(ов)
Расположение каналов: Front: L R
Частота: 48,0 КГц
Битовая глубина: 16 бит
Метод сжатия: С потерями
Задержка видео: -504 мс.
Размер потока: 26,3 Мбайт (3%)
Аудио #4
Идентификатор: 131 (0x83)
Формат: AC-3
Формат/Информация: Audio Coding 3
Профиль формата: Dolby Digital
Расширение режима: CM (complete main)
Продолжительность: 19 м.
Вид битрейта: Постоянный
Битрейт: 192 Кбит/сек
Канал(ы): 2 канала(ов)
Расположение каналов: Front: L R
Частота: 48,0 КГц
Битовая глубина: 16 бит
Метод сжатия: С потерями
Задержка видео: -504 мс.
Размер потока: 26,3 Мбайт (3%)
Аудио #5
Идентификатор: 132 (0x84)
Формат: AC-3
Формат/Информация: Audio Coding 3
Профиль формата: Dolby Digital
Расширение режима: CM (complete main)
Продолжительность: 19 м.
Вид битрейта: Постоянный
Битрейт: 192 Кбит/сек
Канал(ы): 2 канала(ов)
Расположение каналов: Front: L R
Частота: 48,0 КГц
Битовая глубина: 16 бит
Метод сжатия: С потерями
Задержка видео: -504 мс.
Размер потока: 26,3 Мбайт (3%)
Аудио #6
Идентификатор: 133 (0x85)
Формат: AC-3
Формат/Информация: Audio Coding 3
Профиль формата: Dolby Digital
Расширение режима: CM (complete main)
Продолжительность: 19 м.
Вид битрейта: Постоянный
Битрейт: 192 Кбит/сек
Канал(ы): 2 канала(ов)
Расположение каналов: Front: L R
Частота: 48,0 КГц
Битовая глубина: 16 бит
Метод сжатия: С потерями
Задержка видео: -504 мс.
Размер потока: 26,3 Мбайт (3%)
Текст #1
Идентификатор: 32 (0x20)
Формат: RLE
Формат/Информация: Run-length encoding
Продолжительность: 19 м.
Задержка видео: -600 мс.
Текст #2
Идентификатор: 33 (0x21)
Формат: RLE
Формат/Информация: Run-length encoding
Продолжительность: 19 м.
Задержка видео: 280 мс.
Текст #3
Идентификатор: 34 (0x22)
Формат: RLE
Формат/Информация: Run-length encoding
Продолжительность: 19 м.
Задержка видео: 280 мс.
Текст #4
Идентификатор: 35 (0x23)
Формат: RLE
Формат/Информация: Run-length encoding
Продолжительность: 19 м.
Задержка видео: 280 мс.
Текст #5
Идентификатор: 36 (0x24)
Формат: RLE
Формат/Информация: Run-length encoding
Продолжительность: 19 м.
Задержка видео: 280 мс.
Текст #6
Идентификатор: 37 (0x25)
Формат: RLE
Формат/Информация: Run-length encoding
Продолжительность: 19 м.
Задержка видео: 280 мс.
Текст #7
Идентификатор: 38 (0x26)
Формат: RLE
Формат/Информация: Run-length encoding
Продолжительность: 19 м.
Задержка видео: 280 мс.
Текст #8
Идентификатор: 39 (0x27)
Формат: RLE
Формат/Информация: Run-length encoding
Продолжительность: 19 м.
Задержка видео: 280 мс.
Текст #9
Идентификатор: 40 (0x28)
Формат: RLE
Формат/Информация: Run-length encoding
Продолжительность: 19 м.
Задержка видео: 280 мс.
Меню
Скриншоты меню
Скриншоты




реклама партнёра


Вернуться к началу
 Профиль Отправить личное сообщение  
 
   Похожие торренты   Автор   Торрент   Размер 
В этой теме нет новых непрочитанных сообщений. В поисках Дори / Finding Dory (Мультфильм, комедия, приключения, семейный, 2016) DVD9 | Custom

marya111

29 | 18

6.39 ГБ

В этой теме нет новых непрочитанных сообщений. Как приручить дракона 2 / How to Train Your Dragon 2 [мультфильм, фэнтези, комедия, приключения, семейный, 2014] DVD9, Dub+Sub [лицензия]

Dracon

49 | 2

7.54 ГБ

В этой теме нет новых непрочитанных сообщений. Майк и Молли / Mike and Molly [S04] (Джеймс Берроуз) [Комедия, 2013] WEB-DLRip [Кураж-Бамбей]

Dracon

77 | 10

5.02 ГБ

В этой теме нет новых непрочитанных сообщений. Тайны и ложь / Secrets & Lies (Майк Ли / Mike Leigh) [1996г., Франция, драма, BDRip-AVC] MVO

Alfredovich

11 | 4

3.2 ГБ

В этой теме нет новых непрочитанных сообщений. Супер Майк XXL / Magic Mike XXL (Грегори Джейкобс) [комедия, музыка, драма, 2015] BDRip-AVC, Dub+Sub [BD CEE]

Dracon

631 | 54

2.18 ГБ

В этой теме нет новых непрочитанных сообщений. Майк и Молли / Mike and Molly [S05] (Марк Робертс) [Комедия, 2014–2015] HDTVRip [Кураж-Бамбей]

Dracon

155 | 75

5.01 ГБ

В этой теме нет новых непрочитанных сообщений. Супер Майк XXL / Magic Mike XXL (Грегори Джейкобс) [комедия, музыка, драма, 2015] HDRip, Dub [iTunes]

Dracon

75 | 3

2.05 ГБ


Начать новую тему Ответить на тему  [ 1 сообщение ] 




Для Мосгорсуда, Роскомнадзора и рекламодателей:: mosgorsud-torrent[собачка]yandex.ru