Торрент файл
скачать торрент магнет ссылка Добавлен: 25 янв 2012, 21:39
Размер: 4.23 ГБ
Сидеров: 8
Личеров: 4
Автор

СообщениеДобавлено: 25 янв 2012, 21:39 

Не в сети
Супермодератор
Аватара пользователя
Дата регистрации:
14 июн 2010, 21:00
Возраст: 29
Спасибо: 1337 / 1
Сообщения: 5611
Откуда: НиНО
Лило и Стич / Lilo & Stitch-Страна: США
Жанр: фантастика, приключения, семейный, мультфильм
Продолжительность: 01:25:12
Год выпуска: 2002
Перевод 1: Профессиональный (дублированный) Нева-1
Перевод 2: Авторский (одноголосый закадровый) Андрей Гаврилов
Перевод 3: Авторский (одноголосый закадровый) Юрий Живов
Перевод 4: Профессиональный (двухголосый закадровый) Петр Гланц и Татьяна Казакова
Русские субтитры: есть-Режиссёры: Дин ДеБлуа, Крис Сандерс / Dean DeBlois, Chris Sanders
Роли озвучивали: Дэйви Чейз, Крис Сандерс, Тиа Каррере, Дэвид Огден Стайерз, Кевин МакДональд, Винг Рэймс, Зои Колдуэлл, Джейсон Скотт Ли, Кевин Майкл Ричардсон, Сьюзэн Хегарти- | Релиз группы: -Описание: Лило — это маленькая девочка, живущая на Гавайах. Она сирота и живет вместе со своей старшей сестрой Нани. Лило любит всех животных, но больше всего она подружилась с собачкой по имени Стич, которая на самом деле совсем не собачка, а — замаскированный инопланетянин. Дело было так: некоего преступника по имени Стич переправляли в интергалактическую тюрьму, но ему удалось ускользнуть и приземлиться на Земле, где он и встретил Лило. И тут Стич прикинулся собакой, дабы скрыться от преследования интергалактической полиции. Теперь Стич учится тому, чему не был обучен — заботе о других…-Доп. материалы: отсутствуют.-Доп. информация: Изготовлено из DVD9 "Киномания". Видео не сжималось. Удалены все доп. материалы.
Добавлены переводы:
1) Андрея Гаврилова. За любезно предоставленную дорожку 5.1 спасибо dunhill200.
2) Петра Гланца и Татьяны Казаковой из соседней раздачи.
Звуковая дорожка с переводом Юрия Живова перекодирована из DTS в Dolby AC3 5.1.-Семпл: скачать-Качество: DVD5 (Custom)
Формат: DVD-video
Видео: NTSC 720x480 (16:9) @ 854x480, 23.976 fps, MPEG-2 Video, ~4890 Kbps, 0.590 bits/pixel
Аудио 1: Russian, AC3, 3/2 (L,C,R,SL,SR)+LFE ch, 384 kbps | Дубляж "Нева-1"
Аудио 2: Russian, AC3, 3/2 (L,C,R,SL,SR)+LFE ch, 384 kbps | Андрей Гаврилов
Аудио 3: Russian, AC3, 3/2 (L,C,R,SL,SR)+LFE ch, 384 kbps | Юрий Живов
Аудио 4: Russian, AC3, 3/2 (L,C,R,SL,SR)+LFE ch, 448 kbps | Петр Гланц и Татьяна Казакова | *
Аудио 5: English, AC3, 3/2 (L,C,R,SL,SR)+LFE ch, 448 kbps | Original | *
* Переключение на аудио-дорожки № 4, 5 возможно только во время просмотра фильма. Их выбор из меню диска не предусмотрен.
Субтитры: English, Russian
Тех. данные
Используемый софт
Разборка-сборка DVD: PgcDemux, MuxMan, DvdReMakePro.
Разборка-сборка звука: Eac3to, Sonic Foundry Soft Encode.
Корректировка меню: Adobe Photoshop.
DVDInfo
Title: LILO_&_STICH_DVD5
Size: 4.23 Gb ( 4 430 800,00 KBytes ) - DVD-5
Enabled regions: 1, 2, 3, 4, 5, 6, 7, 8
VTS_01 :
Play Length: 01:25:12+{00:00:00}+{00:00:40}+00:00:02+{00:00:02}
Video: NTSC 16:9 (720x480) VBR, Auto Letterboxed
Audio:
Russian, AC3, 3/2 (L,C,R,SL,SR)+LFE ch, 384 kbps, Delay 0 mSec
Russian, AC3, 3/2 (L,C,R,SL,SR)+LFE ch, 384 kbps, Delay 0 mSec
Russian, AC3, 3/2 (L,C,R,SL,SR)+LFE ch, 384 kbps, Delay 0 mSec
Russian, AC3, 3/2 (L,C,R,SL,SR)+LFE ch, 448 kbps, Delay 0 mSec
English, AC3, 3/2 (L,C,R,SL,SR)+LFE ch, 448 kbps, Delay 0 mSec
Subtitles:
English
Russian
VTS_02 :
Play Length: 00:00:18+00:00:08
Video: NTSC 16:9 (720x480) VBR, Auto Pan&Scan
Audio:
English (Dolby AC3, 6 ch)
VTS_03 :
Play Length: 00:00:01+00:00:01
Video: NTSC 16:9 (720x480) VBR, Auto Letterboxed
VTS_04 :
Play Length: 00:00:00+00:00:01+00:00:01+00:00:01+00:00:01+00:00:01+00:00:01+00:00:01+00:00:01+00:00:01
Video: NTSC 4:3 (720x480) VBR
Audio:
English (Dolby AC3, 6 ch)
VTS_05 :
Play Length: 00:00:01+00:00:01+00:00:01+00:00:01+00:00:01+00:00:01+00:00:01+00:00:01+00:00:01+00:00:01+00:00:01+00:00:01+00:00:01+00:00:01+00:00:01
Video: NTSC 4:3 (720x480) VBR
Audio:
English (Dolby AC3, 2 ch)
VTS_06 :
Play Length: 00:00:00+{00:00:00}+00:00:05+00:00:00+00:00:00+{00:00:00}+00:00:00+00:00:09
Video: NTSC 4:3 (720x480) VBR
Audio:
Not specified (Dolby AC3, 6 ch)
Subtitles:
Not specified
VTS_07 :
Play Length: 00:00:00+00:00:00+{00:00:00}
Video: NTSC 16:9 (720x480) VBR, Auto Letterboxed
VTS_08 :
Play Length: 00:00:01
Video: NTSC 4:3 (720x480) VBR
VTS_09 :
Play Length: 00:00:01+00:00:01+00:00:01+00:00:01+00:00:01+00:00:01+00:00:04
Video: NTSC 4:3 (720x480) VBR
Audio:
English (Dolby AC3, 2 ch)
VTS_10 :
Play Length: 00:00:06+00:00:06+00:00:11+00:00:06
Video: NTSC 16:9 (720x480) VBR, Auto Letterboxed
MediaInfo
Код:
General
Complete name: D:\DVD\LILO_&_STICH_DVD5\VIDEO_TS\VTS_01_1.VOB
Format: MPEG-PS
File size: 1 024 MiB
Duration: 20mn 13s
Overall bit rate mode: Variable
Overall bit rate: 7 079 Kbps
Video
ID: 224 (0xE0)
Format: MPEG Video
Format version: Version 2
Format profile: Main@Main
Format settings, BVOP: Yes
Format settings, Matrix: Custom
Duration: 20mn 13s
Bit rate mode: Variable
Bit rate: 4 890 Kbps
Maximum bit rate: 9 800 Kbps
Width: 720 pixels
Height: 480 pixels
Display aspect ratio: 16:9
Frame rate: 23.976 fps
Standard: Component
Color space: YUV
Chroma subsampling: 4:2:0
Bit depth: 8 bits
Scan type: Progressive
Scan order: 2:3 Pulldown
Compression mode: Lossy
Bits/(Pixel*Frame): 0.590
Stream size: 707 MiB (69%)
Audio #1
ID: 189 (0xBD)-128 (0x80)
Format: AC-3
Format/Info: Audio Coding 3
Mode extension: CM (complete main)
Muxing mode: DVD-Video
Duration: 20mn 13s
Bit rate mode: Constant
Bit rate: 384 Kbps
Channel(s): 6 channels
Channel positions: Front: L C R, Side: L R, LFE
Sampling rate: 48.0 KHz
Bit depth: 16 bits
Compression mode: Lossy
Stream size: 55.5 MiB (5%)
Audio #2
ID: 189 (0xBD)-129 (0x81)
Format: AC-3
Format/Info: Audio Coding 3
Mode extension: CM (complete main)
Muxing mode: DVD-Video
Duration: 20mn 13s
Bit rate mode: Constant
Bit rate: 384 Kbps
Channel(s): 6 channels
Channel positions: Front: L C R, Side: L R, LFE
Sampling rate: 48.0 KHz
Bit depth: 16 bits
Compression mode: Lossy
Stream size: 55.5 MiB (5%)
Audio #3
ID: 189 (0xBD)-130 (0x82)
Format: AC-3
Format/Info: Audio Coding 3
Mode extension: CM (complete main)
Muxing mode: DVD-Video
Duration: 20mn 13s
Bit rate mode: Constant
Bit rate: 384 Kbps
Channel(s): 6 channels
Channel positions: Front: L C R, Side: L R, LFE
Sampling rate: 48.0 KHz
Bit depth: 16 bits
Compression mode: Lossy
Stream size: 55.5 MiB (5%)
Audio #4
ID: 189 (0xBD)-131 (0x83)
Format: AC-3
Format/Info: Audio Coding 3
Mode extension: CM (complete main)
Muxing mode: DVD-Video
Duration: 20mn 13s
Bit rate mode: Constant
Bit rate: 448 Kbps
Channel(s): 6 channels
Channel positions: Front: L C R, Side: L R, LFE
Sampling rate: 48.0 KHz
Bit depth: 16 bits
Compression mode: Lossy
Stream size: 64.8 MiB (6%)
Audio #5
ID: 189 (0xBD)-132 (0x84)
Format: AC-3
Format/Info: Audio Coding 3
Mode extension: CM (complete main)
Muxing mode: DVD-Video
Duration: 20mn 13s
Bit rate mode: Constant
Bit rate: 448 Kbps
Channel(s): 6 channels
Channel positions: Front: L C R, Side: L R, LFE
Sampling rate: 48.0 KHz
Bit depth: 16 bits
Compression mode: Lossy
Stream size: 64.8 MiB (6%)
Text #1
ID: 189 (0xBD)-32 (0x20)
Format: RLE
Format/Info: Run-length encoding
Muxing mode: DVD-Video
Duration: 20mn 5s
Delay relative to video: 5s 105ms
Text #2
ID: 189 (0xBD)-33 (0x21)
Format: RLE
Format/Info: Run-length encoding
Muxing mode: DVD-Video
Duration: 19mn 49s
Delay relative to video: 19s 519ms
Text #3
ID: 224 (0xE0)-DVD-2
Format: EIA-608
Muxing mode: DVD-Video
Muxing mode, more info: Muxed in Video #1
Bit rate mode: Constant
Stream size: 0.00 Byte (0%)
Menu
Скриншоты меню
Скриншоты






реклама партнёра


Вернуться к началу
 Профиль Отправить личное сообщение  
 
   Похожие торренты   Автор   Торрент   Размер 
В этой теме нет новых непрочитанных сообщений. Как приручить дракона:Коллекция / HOW TO TRAIN YOUR DRAGON:COLLECTION (Дин ДеБлуа, Крис Сандерс,) [2010- 2014, Мультфильм, фэнтези, комедия, приключения, семейный, ВDRip-AVC] [1080p] [Dub (Лицензия)]

Враг Нароода

6 | 3

11.05 ГБ

В этой теме нет новых непрочитанных сообщений. В поисках Дори / Finding Dory (Мультфильм, комедия, приключения, семейный, 2016) DVD9 | Custom

marya111

29 | 18

6.39 ГБ

В этой теме нет новых непрочитанных сообщений. Дом / Home (Тим Джонсон) [мультфильм, фантастика, фэнтези, комедия, приключения, семейный, 2015] DVD5, Dub+Sub [Лицензия]

Dracon

3 | 0

4.36 ГБ

В этой теме нет новых непрочитанных сообщений. Город героев / Big Hero 6 (Дон Холл, Крис Уильямс) [мультфильм, фантастика, комедия, семейный, боевик, 2014] HDRip, Dub [Лицензия]

Dracon

90 | 5

2.18 ГБ

В этой теме нет новых непрочитанных сообщений. Город героев / Big Hero 6 (Дон Холл, Крис Уильямс) [мультфильм, фантастика, комедия, семейный, боевик, 2014] HDRip, dub [iTunes]

Dracon

794 | 16

1.46 ГБ

В этой теме нет новых непрочитанных сообщений. Город героев  / Big Hero 6 (Дон Холл, Крис Уильямс) [мультфильм, фантастика, комедия, семейный, боевик, 2014] BDRip 720p, Dub [iTunes] Avo+Sub

Dracon

15 | 5

3.76 ГБ

В этой теме нет новых непрочитанных сообщений. Город героев / Big Hero 6 (Дон Холл, Крис Уильямс) [мультфильм, фантастика, комедия, семейный, боевик, 2014] BDRip 1080p, Dub+Sub [Лицензия] Avo

Dracon

3 | 2

15 ГБ


Начать новую тему Ответить на тему  [ 1 сообщение ] 




Для Мосгорсуда, Роскомнадзора и рекламодателей:: mosgorsud-torrent[собачка]yandex.ru