Торрент файл
скачать торрент магнет ссылка Добавлен: 23 янв 2012, 20:43
Размер: 1.37 ГБ
Сидеров: 74
Личеров: 10
Автор

СообщениеДобавлено: 23 янв 2012, 20:43 

Не в сети
Супермодератор
Аватара пользователя
Дата регистрации:
11 апр 2010, 18:10
Спасибо: 5803 / 7
Сообщения: 56779


[b]Тайна Аббатства Келлс / The Secret of Kells[/b]
Перевод: Профессиональный (многоголосый, закадровый) Лицензия
cубтитры: отсутствуют
Формат: HDRip, AVI, XviD, AC3
Страна: Франция, Ирландия, Бельгия
Режиссер: Томм Мур / Tomm Moore, Нора Твоми / Nora Twomey
Жанр: Приключения, Мультфильм
Продолжительность: 01:18:44
Год выпуска: 2009Роли озвучивали: Брендан Глисон, Эван МакГуайр, Кристен Муни, Мик Лэлли, Лиам Хурикан, Пол Янг
Описание: На дворе 9 век. В ирландской глубинке спряталось старинное аббатство Келлз, руководит им авторитарный Настоятель. Воспитанный им племянник-сирота по имени Брендан — мальчик славный и способный. Ему 12 лет, и он вместе с другими монахами старательно трудится над укреплением стен аббатства для защиты от набегов викингов.Новая полная приключений жизнь ждет Брендана с прибытием Брата Эйдана, знаменитого мастера-иллюстратора и хранителя необычной незаконченной книги с иллюстрациями. Брат Эйдан принимает мальчика под свое крыло и посвящает его в искусство иллюстрации, пробуждая невероятный интерес и удивительный талант.
Рейтинг на IMDB: 7.5/10 (4,859 votes)

Видео: XviD 720x400 (1.80:1) 23.976 fps 2086 kbps
Аудио 1: Русский AC3 Dolby Digital 48 kHz 2/0 (L,R) ch 192 kbps
Аудио 2: Украинский AC3 Dolby Digital 48 kHz 2/0 (L,R) ch 192 kbps
Общее
Полное имя: the_secret_of_kells_[tfile.ru].avi
Формат: AVI
Формат/Информация: Audio Video Interleave
Размер файла: 1,37 Гбайт
Продолжительность: 1 ч. 18 м.
Общий поток: 2485 Кбит/сек

Видео
Идентификатор: 0
Формат: MPEG-4 Visual
Профиль формата: Advanced Simple@L5
Параметр BVOP формата: 1
Параметр QPel формата: Нет
Параметр GMC формата: Без точки перехода
Параметр матрицы формата: Default (MPEG)
Идентификатор кодека: XVID
Идентификатор кодека/Подсказка: XviD
Продолжительность: 1 ч. 18 м.
Битрейт: 2087 Кбит/сек
Ширина: 720 пикс.
Высота: 400 пикс.
Соотношение сторон: 16:9
Частота кадров: 23,976 кадр/сек
Цветовое пространство: YUV
Подвыборка цветности: 4:2:0
Битовая глубина: 8 бит
Тип развёртки: Прогрессивная
Метод сжатия: С потерями
Бит/(Пиксели*Кадры): 0.302
Размер потока: 1,15 Гбайт (84%)
Библиотека кодирования: XviD 58

Аудио #1
Идентификатор: 1
Формат: AC-3
Формат/Информация: Audio Coding 3
Расширение режима: CM (complete main)
Идентификатор кодека: 2000
Продолжительность: 1 ч. 18 м.
Вид битрейта: Постоянный
Битрейт: 192 Кбит/сек
Каналы: 2 канала
Расположение каналов: Front: L R
Частота: 48,0 КГц
Битовая глубина: 16 бит
Метод сжатия: С потерями
Размер потока: 108 Мбайт (8%)
Выравнивание: Разделение по промежуткам
Продолжительность промежутка: 42мс. (1,00 видеокадр)
Время предзагрузки промежутка: 500 ms

Аудио #2
Идентификатор: 2
Формат: AC-3
Формат/Информация: Audio Coding 3
Расширение режима: CM (complete main)
Идентификатор кодека: 2000
Продолжительность: 1 ч. 18 м.
Вид битрейта: Постоянный
Битрейт: 192 Кбит/сек
Каналы: 2 канала
Расположение каналов: Front: L R
Частота: 48,0 КГц
Битовая глубина: 16 бит
Метод сжатия: С потерями
Размер потока: 108 Мбайт (8%)
Выравнивание: Разделение по промежуткам
Продолжительность промежутка: 42мс. (1,00 видеокадр)
Время предзагрузки промежутка: 500 ms






Поделиться:




реклама партнёра


Вернуться к началу
 Профиль Отправить личное сообщение  
 
   Похожие торренты   Автор   Торрент   Размер 
В этой теме нет новых непрочитанных сообщений. Невероятная тайна Лулу / Loulou, l'incroyable secret (Эрик Омон) [мультфильм, семейный, 2013] HDRip, Dub [iTunes]

Dracon

494 | 63

1.37 ГБ

В этой теме нет новых непрочитанных сообщений. Три сыщика и тайна замка ужасов / The Three Investigators and the Secret of Terror Castle [детектив, приключения, семейный, 2009] DVDRip, Avo

salma3

61 | 4

1.37 ГБ

В этой теме нет новых непрочитанных сообщений. Тайна в их глазах / Secret in Their Eyes [Триллер, детектив, 2015] HDRip, Dub

Dracon

6229 | 175

1.37 ГБ

В этой теме нет новых непрочитанных сообщений. Невероятная тайна Лулу / Loulou, l'incroyable secret (Эрик Омон) [мультфильм, семейный, 2013] BDRip 1080p, Dub [iTunes]

Dracon

273 | 60

4.59 ГБ

В этой теме нет новых непрочитанных сообщений. Тайна в их глазах / Secret in Their Eyes [Триллер, детектив, 2015] HDRip, Dub [iTunes]

salma3

35 | 7

1.45 ГБ

В этой теме нет новых непрочитанных сообщений. Тайна Мунакра / The Secret of Moonacre [фэнтези, приключения, семейный, 2008] BDRip, Dub [Лицензия]

salma3

266 | 10

1.46 ГБ

В этой теме нет новых непрочитанных сообщений. Песнь моря / Song of the Sea (Томм Мур) [мультфильм, фэнтези, семейный, 2014] WebRip, Mvo

Dracon

835 | 19

1.43 ГБ


Начать новую тему Ответить на тему  [ 1 сообщение ] 




Для Мосгорсуда, Роскомнадзора и рекламодателей:: mosgorsud-torrent[собачка]yandex.ru