Торрент файл
скачать торрент магнет ссылка Добавлен: 23 янв 2012, 20:43
Размер: 1.99 ГБ
Сидеров: 90
Личеров: 15
Автор

СообщениеДобавлено: 23 янв 2012, 20:43 

Не в сети
Супермодератор
Аватара пользователя
Дата регистрации:
11 апр 2010, 18:10
Спасибо: 5962 / 7
Сообщения: 56765
Зеленый Фонарь: Изумрудные рыцари / Green Lantern: Emerald Knights

Перевод: Профессиональный (полное дублирование)[лицензия], cубтитры: отсутствуют
Формат: DVDRip-AVC, MKV, H.264, AC3
Страна: США
Режиссер: Крис Беркли, Лоурен Монтгомери, Джей Олива
Жанр: Мультфильм, фантастика, фэнтези, боевик, приключения
Продолжительность: 01:23:39
Год выпуска: 2011

В ролях: Натан Филлион, Джейсон Айзекс, Элизабет Мосс, Келли Ху, Арнольд Вослоу, Стивен Блум, Генри Роллинз, Родди Пайпер, Брюс Томас, Уэйд Уильямс.

Описание: Мультфильм исследует богатую мифологию вселенной Зеленого Фонаря через шесть взаимосвязанных глав. Во время ожидания главного сражения с Кроной, древним врагом Хранителей Вселенной, Зеленый Фонарь Земли Хэл Джордан, Киловог, Синестро и другие члены Корпуса Зеленого Фонаря пересказывают их самые значительные приключения новичку Арисии - от самого начала и до зловещих событий, которые привели к самой черной Ночи Корпуса!



Видео: 720х576@1024x576 (6:9), 25.000 fps, V_MPEG4/ISO/AVC(High@L3.2) ~2 907 kbps avg, 0.280 bit/pixel
Аудио#1: Русский:48 kHz, AC3 Dolby Digital,2/0 (L,R) ch, ~192 kbps[Профессиональный (полное дублирование)]
Аудио#2: Английский:48 kHz, AC3 Dolby Digital,6 ch(Front: L C R, Side: L R, LFE),~ 384 Kbps [Оригинал]


General
Unique ID: 202085201834245054690295528671490881799 (0x980831B403010E62AA2A756E13703907)
Complete name: C:\Documents and Settings\Admin.MICROSOF-42B712\Мои документы\Downloads\Новинки\Zelen.Fonar.mkv
Format: Matroska
File size: 1.99 GiB
Duration: 1h 20mn
Overall bit rate: 3 554 Kbps
Movie name: Автор рипа: MaxVeLL | R.G.DHT-Movies
Encoded date: UTC 2011-06-11 00:13:02
Writing application: mkvmerge v4.8.0 ('I Got The...') зібрано May 24 2011 03:12:58
Writing library: libebml v1.2.0 + libmatroska v1.1.0

Video
ID: 1
Format: AVC
Format/Info: Advanced Video Codec
Format profile: High@L3.2
Format settings, CABAC: Yes
Format settings, ReFrames: 5 frames
Codec ID: V_MPEG4/ISO/AVC
Duration: 1h 20mn
Bit rate: 2 907 Kbps
Width: 720 pixels
Height: 576 pixels
Display aspect ratio: 16:9
Original display aspect ratio: 5:4
Frame rate: 25.000 fps
Standard: NTSC
Color space: YUV
Chroma subsampling: 4:2:0
Bit depth: 8 bits
Scan type: Progressive
Bits/(Pixel*Frame): 0.280
Stream size: 1.63 GiB (82%)
Language: English
Color primaries: BT.601-6 525, BT.1358 525, BT.1700 NTSC, SMPTE 170M
Transfer characteristics: BT.601-6 525, BT.601-6 625, BT.1358 525, BT.1358 625, BT.1700 NTSC, SMPTE 170M
Matrix coefficients: BT.601-6 525, BT.1358 525, BT.1700 NTSC, SMPTE 170M

Audio #1
ID: 2
Format: AC-3
Format/Info: Audio Coding 3
Format profile: Dolby Digital
Mode extension: CM (complete main)
Codec ID: A_AC3
Duration: 1h 20mn
Bit rate mode: Constant
Bit rate: 192 Kbps
Channel(s): 2 channels
Channel positions: Front: L R
Sampling rate: 48.0 KHz
Bit depth: 16 bits
Compression mode: Lossy
Stream size: 110 MiB (5%)
Language: Russian

Audio #2
ID: 3
Format: AC-3
Format/Info: Audio Coding 3
Mode extension: CM (complete main)
Codec ID: A_AC3
Duration: 1h 20mn
Bit rate mode: Constant
Bit rate: 384 Kbps
Channel(s): 6 channels
Channel positions: Front: L C R, Side: L R, LFE
Sampling rate: 48.0 KHz
Bit depth: 16 bits
Compression mode: Lossy
Stream size: 220 MiB (11%)
Language: English













Поделиться:




реклама партнёра


Вернуться к началу
 Профиль Отправить личное сообщение  
 
   Похожие торренты   Автор   Торрент   Размер 
В этой теме нет новых непрочитанных сообщений. Последние рыцари / Last Knights драма, боевик, приключения, 2015] BDRip-AVC, Dub

salma3

79 | 3

2.18 ГБ

В этой теме нет новых непрочитанных сообщений. Рыцари проклятья / Knights of the Damned [ужасы, фэнтези, боевик, 2017] WEBDLRip, Dvo

salma3

614 | 81

1.37 ГБ

В этой теме нет новых непрочитанных сообщений. Последние рыцари / Last Knights (Казуаки Кирия) [боевик, приключения, 2015] Blu-Ray 1080i, Dub [Лицензия]

Dracon

116 | 13

19.47 ГБ

В этой теме нет новых непрочитанных сообщений. Последние рыцари / Last Knights (Казуаки Кирия) [боевик, приключения, 2015] DVD5, Dub [Лицензия]

Dracon

73 | 3

3.51 ГБ

В этой теме нет новых непрочитанных сообщений. Последние рыцари / Last Knights (Казуаки Кирия) [боевик, приключения, 2015] HDRip, Dub [Лицензия]

Dracon

1 | 0

1.46 ГБ

В этой теме нет новых непрочитанных сообщений. Последние рыцари / Last Knights (Казуаки Кирия) [боевик, приключения, 2015] HDRip, dub [Чистый звук]

Dracon

4519 | 218

1.46 ГБ

В этой теме нет новых непрочитанных сообщений. Шанхайские рыцари / Shanghai Knights [Боевик, комедия, приключения, вестерн, 2003] BDRip, Avo [Гаврилов]

salma3

34 | 4

1.46 ГБ


Начать новую тему Ответить на тему  [ 1 сообщение ] 




Для Мосгорсуда, Роскомнадзора и рекламодателей:: mosgorsud-torrent[собачка]yandex.ru