Торрент файл
скачать торрент магнет ссылка Добавлен: 23 янв 2012, 20:42
Размер: 1.51 ГБ
Сидеров: 318
Личеров: 13
Автор

СообщениеДобавлено: 23 янв 2012, 20:42 

Не в сети
Супермодератор
Аватара пользователя
Дата регистрации:
11 апр 2010, 18:10
Спасибо: 5802 / 7
Сообщения: 56779
Как приручить медведя / Den kaempestore bjоrn

Перевод: Профессиональный (многоголосый, закадровый), cубтитры: отсутствуют
Формат: DVDRip-AVC, MKV, H.264, AC3
Страна: Дания
Режиссер: Эсбен Тофт Якобсен
Жанр: мультфильм, фэнтези, драма, приключения, семейный
Продолжительность: 01:13:15
Год выпуска: 2011

В ролях: Маркус Рюгорд, Флемминг Квист Мюллер.

Описание: Джонатану 11 лет. Каждые летние каникулы он проводит у дедушки, который живет на краю дремучего леса. В этом году компанию ему составит младшая сестра София. За этой непоседой так сложно уследить! Но однажды сестренку похищает гигантский 1000-летний медведь. Джонатан отправляется в самое сердце леса, и хотя у него самого душа уходит в пятки, мальчик намерен вырвать Софию из медвежьих лап. А может быть в зеленой чаще есть кто-то пострашнее косолапого великана?



Видео: 720x576@1024x576, 25 fps, H.264 ~2439 kbps avg, 0.235 bit/pixel
Аудио: 48 kHz, AC3 Dolby Digital, 3/2 (L,C,R,l,r) + LFE ch, ~448.00 kbps avg




General
Unique ID: 188255025544120334749870917648188219660 (0x8DA0995DCF6B549F8D3BAE2C8534A10C)
Complete name: C:\Documents and Settings\Admin.MICROSOF-42B712\Мои документы\Downloads\Новинки\Kak.priruchit.medvedja.mkv
Format: Matroska
File size: 1.51 GiB
Duration: 1h 13mn
Overall bit rate: 2 946 Kbps
Movie name: Автор рипа: MaxVeLL | R.G.DHT-Movies
Encoded date: UTC 2011-06-22 06:14:50
Writing application: mkvmerge v4.8.0 ('I Got The...') зібрано May 24 2011 03:12:58
Writing library: libebml v1.2.0 + libmatroska v1.1.0

Video
ID: 1
Format: AVC
Format/Info: Advanced Video Codec
Format profile: High@L3.2
Format settings, CABAC: Yes
Format settings, ReFrames: 5 frames
Codec ID: V_MPEG4/ISO/AVC
Duration: 1h 13mn
Bit rate: 2 439 Kbps
Width: 720 pixels
Height: 576 pixels
Display aspect ratio: 16:9
Original display aspect ratio: 5:4
Frame rate: 25.000 fps
Standard: NTSC
Color space: YUV
Chroma subsampling: 4:2:0
Bit depth: 8 bits
Scan type: Progressive
Bits/(Pixel*Frame): 0.235
Stream size: 1.25 GiB (83%)
Language: Danish
Color primaries: BT.601-6 525, BT.1358 525, BT.1700 NTSC, SMPTE 170M
Transfer characteristics: BT.601-6 525, BT.601-6 625, BT.1358 525, BT.1358 625, BT.1700 NTSC, SMPTE 170M
Matrix coefficients: BT.601-6 525, BT.1358 525, BT.1700 NTSC, SMPTE 170M

Audio
ID: 2
Format: AC-3
Format/Info: Audio Coding 3
Mode extension: CM (complete main)
Codec ID: A_AC3
Duration: 1h 13mn
Bit rate mode: Constant
Bit rate: 448 Kbps
Channel(s): 6 channels
Channel positions: Front: L C R, Side: L R, LFE
Sampling rate: 48.0 KHz
Bit depth: 16 bits
Compression mode: Lossy
Delay relative to video: 200ms
Stream size: 235 MiB (15%)
Language: Russian













Поделиться:




реклама партнёра


Вернуться к началу
 Профиль Отправить личное сообщение  
 
   Похожие торренты   Автор   Торрент   Размер 
В этой теме нет новых непрочитанных сообщений. Как приручить дракона 2 / How to Train Your Dragon 2 [мультфильм, фэнтези, комедия, приключения, семейный, 2014] CAMRip, Dub

hobbit1021

1041 | 19

1.36 ГБ

В этой теме нет новых непрочитанных сообщений. Как приручить дракона 2 / How to Train Your Dragon 2 [мультфильм, фэнтези, комедия, приключения, семейный, 2014] Blu-Ray 1080p, Dub+Sub [лицензия]

Dracon

29 | 3

37.53 ГБ

В этой теме нет новых непрочитанных сообщений. Как приручить дракона 2  / How to Train Your Dragon 2 [мультфильм, фэнтези, комедия, приключения, семейный, 2014] WEB-DL 720p, Dub [iTunes]

Dracon

28 | 2

3.43 ГБ

В этой теме нет новых непрочитанных сообщений. Как приручить дракона 2 / How to Train Your Dragon 2 [мультфильм, фэнтези, комедия, приключения, семейный, 2014] DVD9, Dub+Sub [лицензия]

Dracon

49 | 2

7.54 ГБ

В этой теме нет новых непрочитанных сообщений. Как приручить дракона 2  / How to Train Your Dragon 2 [мультфильм, фэнтези, комедия, приключения, семейный, 2014] WEB-DLRip, Dub [iTunes]

Dracon

814 | 6

1.46 ГБ

В этой теме нет новых непрочитанных сообщений. Как приручить дракона 2 / How to Train Your Dragon 2 [мультфильм, фэнтези, комедия, приключения, семейный, 2014] HDRip, Dub [лицензия]

Dracon

250 | 9

1.37 ГБ

В этой теме нет новых непрочитанных сообщений. Как приручить дракона 2 / How to Train Your Dragon 2 [мультфильм, фэнтези, комедия, приключения, семейный, 2014] BDRemux 1080p, Dub+Sub [Лицензия]

Dracon

4 | 2

21.18 ГБ


Начать новую тему Ответить на тему  [ 1 сообщение ] 




Для Мосгорсуда, Роскомнадзора и рекламодателей:: mosgorsud-torrent[собачка]yandex.ru