Торрент файл
скачать торрент магнет ссылка Добавлен: 23 янв 2012, 20:41
Размер: 1.46 ГБ
Сидеров: 151
Личеров: 8
Автор

СообщениеДобавлено: 23 янв 2012, 20:41 

Не в сети
Супермодератор
Аватара пользователя
Дата регистрации:
11 апр 2010, 18:10
Спасибо: 5802 / 7
Сообщения: 56779
Рио / Rio

Перевод: Профессиональный (полное дублирование) [Лицензия], cубтитры: отсутствуют
Формат: DVDRip-AVC, MKV, H.264, AC3
Страна: США

Режиссер: Карлос Салдана
Жанр: мультфильм, мюзикл, комедия, приключения, семейный
Продолжительность: 01:32:02

Год выпуска: 2011
В ролях: Джесси Айзенберг, Энн Хэтэуэй, Джейми Фокс,Уилл Ай Эм, Родриго Санторо, Карен Дишер, Карлос Понсе, Джордж Лопез, Джемейн Клемент, Джейсон Фриччион

Описание: Попугай-зануда оставляет свою уютную сытую жизнь в клетке и из Миннесоты отправляется в Рио-де-Жанейро, город грез всех и каждого. Неминуемые встречи, препятствия, опасности и любовь к последней представительнице его рода заставляют нашего героя по-другому посмотреть на мир и из скучного домоседа превратиться в милого симпатягу, узнавшего цену дружбе и смелости.



Видео: 720x424 @ 1024x424 (2.40:1), 25.000 fps, AVC (H264), High@L4.1, ~1879 kbps, 0.246 bit/pixel
Аудио: 48 kHz, AC3 Dolby Digital, 6 channels, ~384 kbps; 3/2 (L,C,R,l,r) + LFE ch







Формат: Matroska
Размер файла: 1,46 Гбайт
Продолжительность: 1 ч. 32 м.
Общий поток: 2264 Кбит/сек
Название фильма: Rio / 2011 / Release by Vaippp / OpenSharing Team
Дата кодирования: UTC 2011-05-06 03:15:38
Программа кодирования: mkvmerge v4.7.0 ('Just Like You Imagined') сборка от Apr 21 2011 01:13:14
Библиотека кодирования: libebml v1.2.0 + libmatroska v1.1.0

Видео
Идентификатор: 1
Формат: AVC
Формат/Информация: Advanced Video Codec
Профиль формата: High@L3.1
Параметр CABAC формата: Да
Параметр ReFrames формата: 8 кадров
Идентификатор кодека: V_MPEG4/ISO/AVC
Продолжительность: 1 ч. 32 м.
Битрейт: 1879 Кбит/сек
Ширина: 720 пикс.
Высота: 424 пикс.
Соотношение сторон: 2,40:1
Частота кадров: 25,000 кадр/сек
Цветовое пространство: YUV
Подвыборка цветности: 4:2:0
Битовая глубина: 8 бит
Тип развёртки: Прогрессивная
Бит/(Пиксели*Кадры): 0.246
Размер потока: 1,18 Гбайт (81%)
Заголовок: DVDRip by Vaippp
Библиотека кодирования: x264 core 114 r1913 5fd3dce
Настройки программы: cabac=1 / ref=8 / deblock=1:-1:-1 / analyse=0x3:0x133 / me=umh / subme=9 / psy=1 / psy_rd=0.80:0.05 / mixed_ref=1 / me_range=32 / chroma_me=1 / trellis=1 / 8x8dct=1 / cqm=0 / deadzone=21,11 / fast_pskip=0 / chroma_qp_offset=-3 / threads=12 / sliced_threads=0 / nr=0 / decimate=1 / interlaced=0 / constrained_intra=0 / bframes=7 / b_pyramid=2 / b_adapt=2 / b_bias=0 / direct=3 / weightb=1 / open_gop=0 / weightp=2 / keyint=250 / keyint_min=25 / scenecut=40 / intra_refresh=0 / rc_lookahead=60 / rc=2pass / mbtree=1 / bitrate=1879 / ratetol=1.0 / qcomp=0.60 / qpmin=10 / qpmax=51 / qpstep=4 / cplxblur=20.0 / qblur=0.5 / ip_ratio=1.40 / aq=1:0.60 / zones=126936,138060,q=35
Язык: English

Аудио
Идентификатор: 2
Формат: AC-3
Формат/Информация: Audio Coding 3
Расширение режима: CM (complete main)
Идентификатор кодека: A_AC3
Продолжительность: 1 ч. 32 м.
Вид битрейта: Постоянный
Битрейт: 384 Кбит/сек
Каналы: 6 каналов
Расположение каналов: Front: L C R, Side: L R, LFE
Частота: 48,0 КГц
Битовая глубина: 16 бит
Метод сжатия: С потерями
Размер потока: 253 Мбайт (17%)
Заголовок: DUB
Язык: Russian


Поделиться:




реклама партнёра


Вернуться к началу
 Профиль Отправить личное сообщение  
 
   Похожие торренты   Автор   Торрент   Размер 
В этой теме нет новых непрочитанных сообщений. Рио 2 / Rio 2 (Карлос Салдана) [2014, Мультфильм, комедия, приключения, семейный, DVDRip] Dub Звук с TS

Nickolas3435

116 | 3

1.37 ГБ

В этой теме нет новых непрочитанных сообщений. Рио 2 / Rio 2 (Карлос Салдана) [2014, мультфильм, комедия, приключения, семейный, BDRip 1080p | Лицензия]

Dracon

596 | 14

9.24 ГБ

В этой теме нет новых непрочитанных сообщений. Рио 2 / Rio 2 ( Карлос Салдана) [2014, мультфильм, комедия, приключения, семейный, BDRip 720p | Лицензия]

Nickolas3435

398 | 10

6.12 ГБ

В этой теме нет новых непрочитанных сообщений. Моана / Moana (мультфильм, мюзикл, фэнтези, комедия, приключения, семейный, 2016) TS | D

marya111

3157 | 395

1.37 ГБ

В этой теме нет новых непрочитанных сообщений. Приключения олененка Рудольфа / Rudolph, the Red-Nosed Reindeer [мультфильм, мюзикл, фэнтези, приключения, семейный, 1964] BDRip 1080p, Mvo

salma3

7 | 4

3.62 ГБ

В этой теме нет новых непрочитанных сообщений. Ледниковый период 3: Доктор Штоа / Ice Age: Dawn of the Dinosaurs (Карлос Салдана, Agent DieGo) [2015, Пародия, комедия, юмористический перевод, BDRip | Смешной перевод]

Nickolas3435

584 | 13

1.4 ГБ

В этой теме нет новых непрочитанных сообщений. Веселый Париж / Gay Purr-ee [мультфильм, мюзикл, комедия, семейный, 1962] WEB-DLRip, Mvo

salma3

46 | 7

1.37 ГБ


Начать новую тему Ответить на тему  [ 1 сообщение ] 




Для Мосгорсуда, Роскомнадзора и рекламодателей:: mosgorsud-torrent[собачка]yandex.ru