Торрент файл
скачать торрент магнет ссылка Добавлен: 23 янв 2012, 20:40
Размер: 698.03 МБ
Сидеров: 173
Личеров: 7
Автор

СообщениеДобавлено: 23 янв 2012, 20:40 

Не в сети
Супермодератор
Аватара пользователя
Дата регистрации:
11 апр 2010, 18:10
Спасибо: 5995 / 7
Сообщения: 56686
Приключения маленького паровозика / The Little Engine That Could

Перевод: Любительский (одноголосый), cубтитры: отсутствуют
Формат: DVDRip, AVI, XviD, MP3
Страна: США
Режиссер: Эллиот М. Бур
Жанр: мультфильм
Продолжительность: 01:21:50
Год выпуска: 2010

В ролях: Джефф Беннетт, Джоди Бенсон, Корбин Блю, Джим Каммингс, Челси Эверед, Вупи Голдберг, Хамани Гриффин, Доминик Скотт Кэй, Мосин Мелвин, Сьюзи Накамура

Описание: Новая экранизация известной американской сказки о маленьком паровозике, которая должна преодолеть множество трудностей и вывезти из страны снов в реальный мир настоящего мальчика.

[/field]



Релиз группа:

Видео: 576x320 (1.80:1), 23.976 fps, XviD build 46 ~1054 kbps avg, 0.24 bit/pixel
Аудио: 44.100 kHz, MPEG Layer 3, 2 ch, ~128.00 kbps avg

Доп. информация: Премьера (мир) 22 марта 2011

General
Complete name: E:\Загрузки\The.Little.Engine.That.Could.2010.DVDRip.avi
Format: AVI
Format/Info: Audio Video Interleave
File size: 698 MiB
Duration: 1h 21mn
Overall bit rate: 1 192 Kbps
Writing application: VirtualDubMod 1.5.10.2 (build 2540/release)
Writing library: VirtualDubMod build 2540/release

Video
ID: 0
Format: MPEG-4 Visual
Format profile: Advanced Simple@L5
Format settings, BVOP: 2
Format settings, QPel: No
Format settings, GMC: No warppoints
Format settings, Matrix: Default (H.263)
Codec ID: XVID
Codec ID/Hint: XviD
Duration: 1h 21mn
Bit rate: 1 055 Kbps
Width: 576 pixels
Height: 320 pixels
Display aspect ratio: 16:9
Frame rate: 23.976 fps
Color space: YUV
Chroma subsampling: 4:2:0
Bit depth: 8 bits
Scan type: Progressive
Compression mode: Lossy
Bits/(Pixel*Frame): 0.239
Stream size: 618 MiB (88%)
Writing library: XviD 1.1.2 (UTC 2006-11-01)

Audio
ID: 1
Format: MPEG Audio
Format version: Version 1
Format profile: Layer 3
Mode: Joint stereo
Mode extension: MS Stereo
Codec ID: 55
Codec ID/Hint: MP3
Duration: 1h 21mn
Bit rate mode: Constant
Bit rate: 128 Kbps
Channel(s): 2 channels
Sampling rate: 44.1 KHz
Compression mode: Lossy
Stream size: 74.9 MiB (11%)
Alignment: Split accross interleaves
Interleave, duration: 42 ms (1.00 video frame)
Interleave, preload duration: 500 ms







Поделиться:



Вернуться к началу
 Профиль Отправить личное сообщение  
 
   Похожие торренты   Автор   Торрент   Размер 
В этой теме нет новых непрочитанных сообщений. Wallpaper Engine v1.0.401 Portable

burdamicin

1 | 1

2.96 ГБ

В этой теме нет новых непрочитанных сообщений. Билли Эллиот / Billy Elliot [драма, комедия, музыка, 2000] BDRip 720p, Dub

salma3

29 | 10

5.29 ГБ

В этой теме нет новых непрочитанных сообщений. Сезон охоты 3 / Open Season 3 [мультфильм, комедия, приключения, 2010] BDRip 1080p, Dub

salma3

16 | 14

4.37 ГБ

В этой теме нет новых непрочитанных сообщений. Медведь Йоги / Yogi Bear [Мультфильм, комедия, приключения, семейный, 2010] BDRip 720р, Dub

salma3

0 | 0

4.1 ГБ

В этой теме нет новых непрочитанных сообщений. Джек в Стране Чудес / Jack and the Beanstalk [мультфильм, мюзикл, фэнтези, приключения, семейный, DVDRip, Mvo

salma3

26 | 4

1.45 ГБ

В этой теме нет новых непрочитанных сообщений. Бывает и хуже / The Middle [06x01-17 из 24] (Ли Шаллат Чемел, Эллиот Хегарти, Кен Уиттингэм) [2015, Комедия, WEB-DLRip | Paramount Comedy]

Dracon

15 | 13

5.02 ГБ

В этой теме нет новых непрочитанных сообщений. Приключения Флика / A Bug's Life [Мультфильм, комедия, приключения, семейный, 1998] BDRip 720p, Dub [60 fps]

salma3

0 | 1

5.6 ГБ


Начать новую тему Ответить на тему  [ 1 сообщение ] 




Для Мосгорсуда, Роскомнадзора и рекламодателей:: mosgorsud-torrent[собачка]yandex.ru
cron