Торрент файл
скачать торрент магнет ссылка Добавлен: 23 янв 2012, 20:40
Размер: 698.03 МБ
Сидеров: 173
Личеров: 7
Автор

СообщениеДобавлено: 23 янв 2012, 20:40 

Не в сети
Супермодератор
Аватара пользователя
Дата регистрации:
11 апр 2010, 18:10
Спасибо: 5799 / 7
Сообщения: 56779
Приключения маленького паровозика / The Little Engine That Could

Перевод: Любительский (одноголосый), cубтитры: отсутствуют
Формат: DVDRip, AVI, XviD, MP3
Страна: США
Режиссер: Эллиот М. Бур
Жанр: мультфильм
Продолжительность: 01:21:50
Год выпуска: 2010

В ролях: Джефф Беннетт, Джоди Бенсон, Корбин Блю, Джим Каммингс, Челси Эверед, Вупи Голдберг, Хамани Гриффин, Доминик Скотт Кэй, Мосин Мелвин, Сьюзи Накамура

Описание: Новая экранизация известной американской сказки о маленьком паровозике, которая должна преодолеть множество трудностей и вывезти из страны снов в реальный мир настоящего мальчика.

[/field]



Релиз группа:

Видео: 576x320 (1.80:1), 23.976 fps, XviD build 46 ~1054 kbps avg, 0.24 bit/pixel
Аудио: 44.100 kHz, MPEG Layer 3, 2 ch, ~128.00 kbps avg

Доп. информация: Премьера (мир) 22 марта 2011

General
Complete name: E:\Загрузки\The.Little.Engine.That.Could.2010.DVDRip.avi
Format: AVI
Format/Info: Audio Video Interleave
File size: 698 MiB
Duration: 1h 21mn
Overall bit rate: 1 192 Kbps
Writing application: VirtualDubMod 1.5.10.2 (build 2540/release)
Writing library: VirtualDubMod build 2540/release

Video
ID: 0
Format: MPEG-4 Visual
Format profile: Advanced Simple@L5
Format settings, BVOP: 2
Format settings, QPel: No
Format settings, GMC: No warppoints
Format settings, Matrix: Default (H.263)
Codec ID: XVID
Codec ID/Hint: XviD
Duration: 1h 21mn
Bit rate: 1 055 Kbps
Width: 576 pixels
Height: 320 pixels
Display aspect ratio: 16:9
Frame rate: 23.976 fps
Color space: YUV
Chroma subsampling: 4:2:0
Bit depth: 8 bits
Scan type: Progressive
Compression mode: Lossy
Bits/(Pixel*Frame): 0.239
Stream size: 618 MiB (88%)
Writing library: XviD 1.1.2 (UTC 2006-11-01)

Audio
ID: 1
Format: MPEG Audio
Format version: Version 1
Format profile: Layer 3
Mode: Joint stereo
Mode extension: MS Stereo
Codec ID: 55
Codec ID/Hint: MP3
Duration: 1h 21mn
Bit rate mode: Constant
Bit rate: 128 Kbps
Channel(s): 2 channels
Sampling rate: 44.1 KHz
Compression mode: Lossy
Stream size: 74.9 MiB (11%)
Alignment: Split accross interleaves
Interleave, duration: 42 ms (1.00 video frame)
Interleave, preload duration: 500 ms







Поделиться:




реклама партнёра


Вернуться к началу
 Профиль Отправить личное сообщение  
 
   Похожие торренты   Автор   Торрент   Размер 
В этой теме нет новых непрочитанных сообщений. Феи. Торт и Спорт / Pixie Hollow. Bake off (Эллиот Бур) [2013, короткометражка, мультфильм, BDRip 720]

Nickolas3435

745 | 16

165.51 МБ

В этой теме нет новых непрочитанных сообщений. Царь скорпионов 4: Утерянный трон / The Scorpion King: The Lost Throne (Майк Эллиот) [Приключения, боевик, 2015] Blu-Ray [BaibaKo]

Dracon

1 | 4

39.31 ГБ

В этой теме нет новых непрочитанных сообщений. Царь скорпионов 4: Утерянный трон / The Scorpion King: The Lost Throne (Майк Эллиот) [Приключения, боевик, 2015] HDRip [BaibaKo]

Dracon

35 | 5

1.39 ГБ

В этой теме нет новых непрочитанных сообщений. Царь скорпионов 4: Утерянный трон / The Scorpion King: The Lost Throne (Майк Эллиот) [Приключения, боевик, 2015] HDRip [BaibaKo]

Dracon

61 | 5

2.05 ГБ

В этой теме нет новых непрочитанных сообщений. Царь скорпионов 4: Утерянный трон / The Scorpion King: The Lost Throne (Майк Эллиот) [Приключения, боевик, 2015] BDRip 720p [BaibaKo]

Dracon

22 | 4

5.74 ГБ

В этой теме нет новых непрочитанных сообщений. Царь скорпионов 4: Утерянный трон / The Scorpion King: The Lost Throne (Майк Эллиот) [Приключения, боевик, 2015] BDRip 1080p [BaibaKo]

Dracon

46 | 10

7.93 ГБ

В этой теме нет новых непрочитанных сообщений. Бросок кобры: G.I. Joe: Дезертиры / G.I. Joe: Renegades [S01: 01-26 из 26] [мультфильм, боевик, приключения, 2010-2011] DVDRip, Dub [лицензия]

salma3

8 | 12

7.66 ГБ


Начать новую тему Ответить на тему  [ 1 сообщение ] 




Для Мосгорсуда, Роскомнадзора и рекламодателей:: mosgorsud-torrent[собачка]yandex.ru