Торрент файл
скачать торрент магнет ссылка Добавлен: 23 янв 2012, 20:37
Размер: 1.98 ГБ
Сидеров: 12
Личеров: 9
Автор

СообщениеДобавлено: 23 янв 2012, 20:37 

Не в сети
Супермодератор
Аватара пользователя
Дата регистрации:
11 апр 2010, 18:10
Спасибо: 5799 / 7
Сообщения: 56779
Чудотворец / The Miracle Maker

Перевод: Профессиональный (многоголосый, закадровый), cубтитры: отсутствуют

Формат: DVDRip-AVC, MKV, H.264, AC3
Страна: Россия, Великобритания
Режиссер: Дерек В. Хэйес, Станислав Соколов

Жанр: мультфильм, драма, биография
Продолжительность: 01:27:04
Год выпуска: 2000

В ролях: Рэйф Файнс, Майкл Брайант, Джули Кристи, Ребекка Каллард, Джеймс Фрейн, Ричард Э. Грант, Иэн Холм, Уильям Хёрт, Энтон Лессер, Дэниел Мэсси

Описание: Полнометражный мультипликационный фильм о жизни Иисуса Христа и добрых делах, которые он совершал для людей. Он творил чудеса, учил мудрости, возвращал потерянные надежды до тех пор, пока его враги не решили его погубить.

_____

Видео: 720x544 (1.32:1), 25 fps, AVC(х264), High@L4.1, ~ 2100 Kbps, 0.214 bit/pixel
Аудио#1: 48 kHz, AС-3, 6 ch (Front: L C R, Side: L R, LFE), ~ 256 kbps avg Профессиональный (многоголосый, закадровый)
Аудио#2: 48 kHz, AС-3, 6 ch (Front: L C R, Side: L R, LFE), ~ 448 kbps avg Профессиональный (многоголосый, закадровый) (отдельно)
Аудио#3: 48 kHz, AС-3, 6 ch (Front: L C R, Side: L R, LFE), ~ 448 kbps avg Английский (оригинал) (отдельно)

Релиз-Группа: Автор:

Формат: Matroska
Размер файла: 1,43 Гбайт
Продолжительность: 1 ч. 27 м.
Общий поток: 2359 Кбит/сек
Дата кодирования: UTC 2011-10-01 17:56:26
Программа кодирования: mkvmerge v2.4.0 ('Fumbling Towards Ecstasy') built on Oct 11 2008 20:13:15
Библиотека кодирования: libebml v0.7.7 + libmatroska v0.8.1

Видео
Идентификатор: 1
Формат: AVC
Формат/Информация: Advanced Video Codec
Профиль формата: High@L4.1
Параметр CABAC формата: Да
Параметр ReFrames формата: 3 кадры
Идентификатор кодека: V_MPEG4/ISO/AVC
Продолжительность: 1 ч. 27 м.
Битрейт: 2100 Кбит/сек
Ширина: 720 пикс.
Высота: 544 пикс.
Соотношение сторон: 4:3
Частота кадров: 25,000 кадр/сек
Цветовое пространство: YUV
Подвыборка цветности: 4:2:0
Битовая глубина: 8 бит
Тип развёртки: Прогрессивная
Бит/(Пиксели*Кадры): 0.214
Размер потока: 1,25 Гбайт (87%)
Библиотека кодирования: x264 core 65 r999kMod cc51047
Настройки программы: cabac=1 / ref=3 / deblock=1:0:0 / analyse=0x3:0x133 / me=umh / subme=6 / psy_rd=1.0:0.0 / mixed_ref=1 / me_range=16 / chroma_me=1 / trellis=1 / 8x8dct=1 / cqm=0 / deadzone=21,11 / chroma_qp_offset=-2 / threads=2 / thread_queue=2 / nr=0 / decimate=1 / mbaff=0 / bframes=3 / b_pyramid=1 / b_adapt=1 / b_bias=0 / direct=3 / wpredb=1 / keyint=250 / keyint_min=25 / scenecut=40(pre) / rc=2pass / bitrate=2100 / ratetol=1.0 / qcomp=0.60 / qpmin=10 / qpmax=51 / qpstep=4 / cplxblur=20.0 / qblur=0.5 / ip_ratio=1.40 / pb_ratio=1.30 / aq=1:1.00

Аудио
Идентификатор: 2
Формат: AC-3
Формат/Информация: Audio Coding 3
Расширение режима: CM (complete main)
Идентификатор кодека: A_AC3
Продолжительность: 1 ч. 27 м.
Вид битрейта: Постоянный
Битрейт: 256 Кбит/сек
Канал(ы): 6 канала(ов)
Расположение каналов: Front: L C R, Side: L R, LFE
Частота: 48,0 КГц
Битовая глубина: 16 бит
Метод сжатия: С потерями
Размер потока: 159 Мбайт (11%)










Поделиться:




реклама партнёра


Вернуться к началу
 Профиль Отправить личное сообщение  
 
   Похожие торренты   Автор   Торрент   Размер 
В этой теме нет новых непрочитанных сообщений. Чудотворец [01-08 из 08] [Драма, 2014] HDTVRip

Dracon

501 | 67

5.41 ГБ

В этой теме нет новых непрочитанных сообщений. Чудотворец [01-08 из 08] [Драма, 2014] SATRip

Dracon

234 | 43

5.33 ГБ

В этой теме нет новых непрочитанных сообщений. Чудотворец [01-08 из 08] [Драма, 2014] HDTV 1080i

Dracon

71 | 19

23.66 ГБ

В этой теме нет новых непрочитанных сообщений. Кот Феликс спасает рождество / Котенок Феликс спасает Рождество / Miracle in Toyland [Мультфильм, мюзикл, семейный, 2004] DVDRip, Dvo

salma3

6 | 6

1.3 ГБ

В этой теме нет новых непрочитанных сообщений. Эрин Брокович / Erin Brockovich [Драма, мелодрама, биография, реальные события, 2000] BDRip 1080p, Dub+Sub

salma3

25 | 4

9.36 ГБ

В этой теме нет новых непрочитанных сообщений. Волшебный Пудинг / The Magic Pudding [мультфильм, семейный, приключения, 2000] DVDRip, Mvo

salma3

6 | 1

1.45 ГБ

В этой теме нет новых непрочитанных сообщений. Мираж на льду / Miracle [драма, семейный, история, спорт, 2004] BDRip 720p, Dvo

salma3

16 | 3

5.55 ГБ


Начать новую тему Ответить на тему  [ 1 сообщение ] 




Для Мосгорсуда, Роскомнадзора и рекламодателей:: mosgorsud-torrent[собачка]yandex.ru