Торрент файл
скачать торрент магнет ссылка Добавлен: 23 янв 2012, 20:37
Размер: 994.02 МБ
Сидеров: 11
Личеров: 8
Автор

СообщениеДобавлено: 23 янв 2012, 20:37 

Не в сети
Супермодератор
Аватара пользователя
Дата регистрации:
11 апр 2010, 18:10
Спасибо: 5960 / 7
Сообщения: 56770
Сказка о трех медвежатах / El Cuento de Los Tres Ositos

Перевод: Профессиональный (многоголосый, закадровый), cубтитры: отсутствуют

Формат: DVDRip-AVC, MKV, H.264, AC3
Страна: Испания
Режиссер: Джозеф Вичиана

Жанр: мультфильм, семейный
Продолжительность: 01:00:22
Год выпуска: 2000

Описание: Во время летних каникул маленькая Златовласка заблудилась в лесу. На самом деле это — начало замечательного приключения, во время которого девочка знакомится с тремя медвежатами. Они сталкиваются с опасностями и недругами, но это только еще больше сближает друзей.
Рейтинг на IMDB: отсутствует
Рейтинг КиноПоиск.RU:

Видео: 720x544 (1.32:1), 25 fps, AVC(х264), High@L4.1, ~ 2100 Kbps, 0.214 bit/pixel
Аудио: 48 kHz, AС-3, 2 ch (Front: L R), ~ 192 kbps avg

Релиз-Группа: Автор:

Формат: Matroska
Размер файла: 994 Мбайт
Продолжительность: 1 ч. 0 м.
Общий поток: 2295 Кбит/сек
Дата кодирования: UTC 2011-10-04 08:42:31
Программа кодирования: mkvmerge v2.4.0 ('Fumbling Towards Ecstasy') built on Oct 11 2008 20:13:15
Библиотека кодирования: libebml v0.7.7 + libmatroska v0.8.1

Видео
Идентификатор: 1
Формат: AVC
Формат/Информация: Advanced Video Codec
Профиль формата: High@L4.1
Параметр CABAC формата: Да
Параметр ReFrames формата: 3 кадры
Идентификатор кодека: V_MPEG4/ISO/AVC
Продолжительность: 1 ч. 0 м.
Битрейт: 2100 Кбит/сек
Ширина: 720 пикс.
Высота: 544 пикс.
Соотношение сторон: 4:3
Частота кадров: 25,000 кадр/сек
Цветовое пространство: YUV
Подвыборка цветности: 4:2:0
Битовая глубина: 8 бит
Тип развёртки: Прогрессивная
Бит/(Пиксели*Кадры): 0.214
Размер потока: 891 Мбайт (90%)
Библиотека кодирования: x264 core 65 r999kMod cc51047
Настройки программы: cabac=1 / ref=3 / deblock=1:0:0 / analyse=0x3:0x133 / me=umh / subme=6 / psy_rd=1.0:0.0 / mixed_ref=1 / me_range=16 / chroma_me=1 / trellis=1 / 8x8dct=1 / cqm=0 / deadzone=21,11 / chroma_qp_offset=-2 / threads=2 / thread_queue=2 / nr=0 / decimate=1 / mbaff=0 / bframes=3 / b_pyramid=1 / b_adapt=1 / b_bias=0 / direct=3 / wpredb=1 / keyint=250 / keyint_min=25 / scenecut=40(pre) / rc=2pass / bitrate=2100 / ratetol=1.0 / qcomp=0.60 / qpmin=10 / qpmax=51 / qpstep=4 / cplxblur=20.0 / qblur=0.5 / ip_ratio=1.40 / pb_ratio=1.30 / aq=1:1.00

Аудио
Идентификатор: 2
Формат: AC-3
Формат/Информация: Audio Coding 3
Расширение режима: CM (complete main)
Идентификатор кодека: A_AC3
Продолжительность: 1 ч. 0 м.
Вид битрейта: Постоянный
Битрейт: 192 Кбит/сек
Канал(ы): 2 канала(ов)
Расположение каналов: Front: L R
Частота: 48,0 КГц
Битовая глубина: 16 бит
Метод сжатия: С потерями
Размер потока: 83,2 Мбайт (8%)










Поделиться:




реклама партнёра


Вернуться к началу
 Профиль Отправить личное сообщение  
 
   Похожие торренты   Автор   Торрент   Размер 
В этой теме нет новых непрочитанных сообщений. Волшебный Пудинг / The Magic Pudding [мультфильм, семейный, приключения, 2000] DVDRip, Mvo

salma3

6 | 1

1.45 ГБ

В этой теме нет новых непрочитанных сообщений. Экстремальный Гуфи / An Extremely Goofy Movie [мультфильм, комедия, семейный, спорт, 2000] WEB-DL 1080p, Dub

salma3

5 | 11

2.93 ГБ

В этой теме нет новых непрочитанных сообщений. Советник президента / Mail to the Chief [комедия, семейный, 2000] DVDRip, Mvo

salma3

118 | 15

1.36 ГБ

В этой теме нет новых непрочитанных сообщений. Лучшее лето / Den bästa sommaren [драма, комедия, семейный, 2000] DVDRip, Avo

salma3

68 | 3

1.35 ГБ

В этой теме нет новых непрочитанных сообщений. Вечера на хуторе близ Диканьки [семейный, сказка, 1961] WEB-DLRip

salma3

54 | 10

1.32 ГБ

В этой теме нет новых непрочитанных сообщений. Железный Ганс / Der Eisenhans [семейный, сказка, приключения, 2011] HDTVRip 1080p, Mvo

salma3

6 | 2

3.13 ГБ

В этой теме нет новых непрочитанных сообщений. Маша и медведь: Три Машкетёра [64] [Мультсериал, сказка, детский, семейный, 2017] WEB-DLRip

salma3

157 | 8

128.1 МБ


Начать новую тему Ответить на тему  [ 1 сообщение ] 




Для Мосгорсуда, Роскомнадзора и рекламодателей:: mosgorsud-torrent[собачка]yandex.ru