Торрент файл
скачать торрент магнет ссылка Добавлен: 23 янв 2012, 20:37
Размер: 1.35 ГБ
Сидеров: 9
Личеров: 9
Автор

СообщениеДобавлено: 23 янв 2012, 20:37 

Не в сети
Супермодератор
Аватара пользователя
Дата регистрации:
11 апр 2010, 18:10
Спасибо: 5801 / 7
Сообщения: 56779
Триумф пана Кляксы / Tryumf pana Kleksa

Перевод: Отсутствует, cубтитры: Русские - в контейнере
Формат: DVDRip, MKV, MPEG4, AC3
Страна: Польша
Режиссер: Кшиштоф Градовский
Жанр: Мультипликационный, приключения, фэнтези
Продолжительность: 01:13:10
Год выпуска: 2001
В ролях: Иржи Бончак, Збигнев Бучковский, Mariusz Czajka, Петр Фрончевский, Ярослав Якимович, Аркадиуш Яничек, Мирослава Нимчик, Роберт Розмус, Збигнев Сушиньски
Описание:
Мультфильм по мотивам (весьма и весьма отдаленно) книги Яна Бжехвы (Jana Brzechwy) Tryumf pana Kleksa. Это последняя повесть о пане Кляксе и последняя третья экранизация.У Томаша Миловского, художника из журнала комиксов, проблемы.Шефу не нравятся его рисунки - хмурые и страшные.Если за два дня ничего "радостного" не придумает - его уволят.Томашу попадает в руки книга Яна Бжехвы и он решает иллюстрировать ее в форме комикса.В его квартире начинают происходить странные вещи.Нарисованные им комиксы начинают жить своей жизнью, втягивая реальных героев в мир мультипликации.




Видео: 720 x 576 (1.333) at 25.000 fps, MPEG-4 Visual at 2142 Кбит/сек, 0.207 bit/pixel
Аудио: AC-3 at 448 Кбит/сек, 6 канала(ов), 48,0 КГц


Общее
Уникальный идентификатор: 181123700125300456506150324005816288113 (0x884327E09AECED528FBC3B4B648CC371)
Полное имя: F:\new_torrent\Tryumf pana Kleksa.mkv
Формат: Matroska
Размер файла: 1,35 Гбайт
Продолжительность: 1 ч. 13 м.
Общий поток: 2643 Кбит/сек
Название фильма: Триумф пана Кляксы Tryumf pana Kleksa 2011 Польша
Дата кодирования: UTC 2011-10-04 20:55:25
Программа кодирования: mkvmerge v5.0.0 ('Die Wahre Liebe') built on Sep 25 2011 20:33:49
Библиотека кодирования: libebml v1.2.2 + libmatroska v1.3.0

Видео
Идентификатор: 1
Формат: MPEG-4 Visual
Профиль формата: Advanced Simple@L5
Параметр BVOP формата: Да
Параметр QPel формата: Нет
Параметр GMC формата: Без точки перехода
Параметр матрицы формата: Default (H.263)
Идентификатор кодека: XVID
Идентификатор кодека/Подсказка: XviD
Продолжительность: 1 ч. 13 м.
Битрейт: 2142 Кбит/сек
Ширина: 720 пикс.
Высота: 576 пикс.
Соотношение сторон: 4:3
Соотношение сторон в оригинале: 4:3
Частота кадров: 25,000 кадр/сек
Стандарт вещания: PAL
Цветовое пространство: YUV
Подвыборка цветности: 4:2:0
Битовая глубина: 8 бит
Тип развёртки: Прогрессивная
Метод сжатия: С потерями
Бит/(Пиксели*Кадры): 0.207
Размер потока: 1,09 Гбайт (81%)
Заголовок: Tryumf pana Kleksa 2011
Библиотека кодирования: XviD 1.1.2 (UTC 2006-11-01)
Язык: Polish

Аудио
Идентификатор: 2
Формат: AC-3
Формат/Информация: Audio Coding 3
Расширение режима: CM (complete main)
Идентификатор кодека: A_AC3
Продолжительность: 1 ч. 13 м.
Вид битрейта: Постоянный
Битрейт: 448 Кбит/сек
Канал(ы): 6 канала(ов)
Расположение каналов: Front: L C R, Side: L R, LFE
Частота: 48,0 КГц
Битовая глубина: 16 бит
Метод сжатия: С потерями
Размер потока: 234 Мбайт (17%)
Язык: Polish

Текст
Идентификатор: 3
Формат: UTF-8
Идентификатор кодека: S_TEXT/UTF8
Идентификатор кодека/Информация: UTF-8 Plain Text
Заголовок: Русский
Язык: Russian
[/field]







Поделиться:




реклама партнёра


Вернуться к началу
 Профиль Отправить личное сообщение  
 
   Похожие торренты   Автор   Торрент   Размер 
В этой теме нет новых непрочитанных сообщений. Branikald - Триумф воли [2001, Aryan Raw Black Metal, MP3]

PriZraK

0 | 1

84 МБ

В этой теме нет новых непрочитанных сообщений. Страж тьмы / Revelation [Фэнтези, триллер, драма, приключения, 2001] DVDRip, Dvo

salma3

359 | 17

1.45 ГБ

В этой теме нет новых непрочитанных сообщений. Приключения Кристофера в волшебном лесу / O Grilo Feliz [мультфильм, мюзикл, фэнтези, 2001] DVDRip, Mvo

salma3

18 | 4

1.46 ГБ

В этой теме нет новых непрочитанных сообщений. Повелитель зверей / BeastMaster [S03] (Майкл Оффер, Пино Амента, Карл Цвики) [2001, фэнтези, боевик, приключения, DVDRip]

Dracon

84 | 124

8.39 ГБ

В этой теме нет новых непрочитанных сообщений. Хардкорное диско / Hardkor Disko (Кшиштоф Сконечны) [2014, триллер, драма, DVDRip] avo

Nickolas3435

164 | 9

1.35 ГБ

В этой теме нет новых непрочитанных сообщений. Константа / Constans (Кшиштоф Занусси / Krzysztof Zanussi) [1980г., Польша, драма, DVDRip] MVO

Alfredovich

3 | 4

1.45 ГБ

В этой теме нет новых непрочитанных сообщений. Кербела / Karbala (Кшиштоф Лукашевич / Krzysztof Lukaszewicz) [2015г., Польша, военный, DVDRip] dvo

Alfredovich

2140 | 119

1.43 ГБ


Начать новую тему Ответить на тему  [ 1 сообщение ] 




Для Мосгорсуда, Роскомнадзора и рекламодателей:: mosgorsud-torrent[собачка]yandex.ru