Торрент файл
скачать торрент магнет ссылка Добавлен: 23 янв 2012, 20:36
Размер: 814.2 МБ
Сидеров: 11
Личеров: 10
Автор

СообщениеДобавлено: 23 янв 2012, 20:36 

Не в сети
Супермодератор
Аватара пользователя
Дата регистрации:
11 апр 2010, 18:10
Спасибо: 5801 / 7
Сообщения: 56779
Кентервильское привидение / The Canterville Ghost

Перевод: Профессиональный (многоголосый, закадровый), cубтитры: отсутствуют

Формат: DVDRip-AVC, MKV, H.264, AC3
Страна: Австралия
Режиссер: Ричард Слапчински

Жанр: мультфильм, комедия, приключения, семейный
Продолжительность: 00:49:35
Год выпуска: 2001

В ролях: Филлип Хинтон, Джоэнна Мур, Робин Мур, Трой Плэнет

Описание: «Когда заплачет не шутя здесь златокудрое дитя, молитва утолит печаль и зацветет в саду миндаль, тогда возликует этот дом, и дух уснет, живущий в нем.» Именно такие строки прочитала маленькая Вирджиния на окне библиотеки старого замка. Девочка не знала, что значат эти странные слова, пока, обитавшее в замке привидение лорда Кентервиля не обратилось к ней с просьбой о помощи…

_____

Видео: 720x544 (1.32:1), 25 fps, AVC(х264), High@L4.1, ~ 2100 Kbps, 0.214 bit/pixel
Аудио: 48 kHz, AС-3, 2 ch (Front: L R), ~ 192 kbps avg

Релиз-Группа: Автор:

Формат: Matroska
Размер файла: 814 Мбайт
Продолжительность: 49 м.
Общий поток: 2295 Кбит/сек
Дата кодирования: UTC 2011-10-08 08:07:28
Программа кодирования: mkvmerge v2.4.0 ('Fumbling Towards Ecstasy') built on Oct 11 2008 20:13:15
Библиотека кодирования: libebml v0.7.7 + libmatroska v0.8.1

Видео
Идентификатор: 1
Формат: AVC
Формат/Информация: Advanced Video Codec
Профиль формата: High@L4.1
Параметр CABAC формата: Да
Параметр ReFrames формата: 3 кадры
Идентификатор кодека: V_MPEG4/ISO/AVC
Продолжительность: 49 м.
Битрейт: 2100 Кбит/сек
Ширина: 720 пикс.
Высота: 544 пикс.
Соотношение сторон: 4:3
Частота кадров: 25,000 кадр/сек
Цветовое пространство: YUV
Подвыборка цветности: 4:2:0
Битовая глубина: 8 бит
Тип развёртки: Прогрессивная
Бит/(Пиксели*Кадры): 0.214
Размер потока: 730 Мбайт (90%)
Библиотека кодирования: x264 core 65 r999kMod cc51047
Настройки программы: cabac=1 / ref=3 / deblock=1:0:0 / analyse=0x3:0x133 / me=umh / subme=6 / psy_rd=1.0:0.0 / mixed_ref=1 / me_range=16 / chroma_me=1 / trellis=1 / 8x8dct=1 / cqm=0 / deadzone=21,11 / chroma_qp_offset=-2 / threads=2 / thread_queue=2 / nr=0 / decimate=1 / mbaff=0 / bframes=3 / b_pyramid=1 / b_adapt=1 / b_bias=0 / direct=3 / wpredb=1 / keyint=250 / keyint_min=25 / scenecut=40(pre) / rc=2pass / bitrate=2100 / ratetol=1.0 / qcomp=0.60 / qpmin=10 / qpmax=51 / qpstep=4 / cplxblur=20.0 / qblur=0.5 / ip_ratio=1.40 / pb_ratio=1.30 / aq=1:1.00

Аудио
Идентификатор: 2
Формат: AC-3
Формат/Информация: Audio Coding 3
Расширение режима: CM (complete main)
Идентификатор кодека: A_AC3
Продолжительность: 49 м.
Вид битрейта: Постоянный
Битрейт: 192 Кбит/сек
Канал(ы): 2 канала(ов)
Расположение каналов: Front: L R
Частота: 48,0 КГц
Битовая глубина: 16 бит
Метод сжатия: С потерями
Размер потока: 68,1 Мбайт (8%)










Поделиться:




реклама партнёра


Вернуться к началу
 Профиль Отправить личное сообщение  
 
   Похожие торренты   Автор   Торрент   Размер 
В этой теме нет новых непрочитанных сообщений. Привидение за работой / When Good Ghouls Go Bad [Комедия, Семейный, 2001] SATRip, Mvo

salma3

33 | 5

1.1 ГБ

В этой теме нет новых непрочитанных сообщений. Альфа и Омега 3 / Alpha and Omega 3: The Great Wolf Games (Ричард Рич) [Мультфильм, комедия, приключения, семейный, 2014] WEB-DL 720p, dvo

Dracon

985 | 36

1.59 ГБ

В этой теме нет новых непрочитанных сообщений. Рио 2 / Rio 2 [Мультфильм, комедия, приключения, семейный, 2014] DVDRip, dub [звук с TS]

Dracon

356 | 3

808.88 МБ

В этой теме нет новых непрочитанных сообщений. Рио 2 / Rio 2 (Карлос Салдана) [2014, Мультфильм, комедия, приключения, семейный, DVDRip] Dub Звук с TS

Nickolas3435

116 | 3

1.37 ГБ

В этой теме нет новых непрочитанных сообщений. Небольшое привидение: Вы знакомы с моим другом вурдалаком? / Mostly Ghostly: Have You Met My Ghoulfriend? (Питер Хьюит) [комедия, семейный, 2014] HDRip, dub [чистый звук]

Dracon

885 | 41

1.37 ГБ

В этой теме нет новых непрочитанных сообщений. Альфа и Омега 5: Семейный отдых [Мультфильм, комедия, приключения, семейный, полнометражный, 2015] HDRip, Dub

Dracon

297 | 16

663.21 МБ

В этой теме нет новых непрочитанных сообщений. Лего. Фильм / The Lego Movie [мультфильм, фэнтези, комедия, приключения, семейный, 2014] DVDRip, dub [Звук с TS]

Dracon

238 | 6

1.37 ГБ


Начать новую тему Ответить на тему  [ 1 сообщение ] 




Для Мосгорсуда, Роскомнадзора и рекламодателей:: mosgorsud-torrent[собачка]yandex.ru