Торрент файл
скачать торрент магнет ссылка Добавлен: 23 янв 2012, 20:36
Размер: 1.19 ГБ
Сидеров: 3
Личеров: 6
Автор

СообщениеДобавлено: 23 янв 2012, 20:36 

Не в сети
Супермодератор
Аватара пользователя
Дата регистрации:
11 апр 2010, 18:10
Спасибо: 5799 / 7
Сообщения: 56779
Зачарованный лес / The Elm Chanted Forest

Перевод: Профессиональный (полное дублирование), cубтитры: отсутствуют

Формат: DVDRip-AVC, MKV, H.264, AC3
Страна: США, Югославия
Режиссер: Милан Блажекович, Доро Владо Хрелянович

Жанр: мультфильм, мюзикл, фэнтези, семейный
Продолжительность: 01:18:11
Год выпуска: 1986

В ролях: Иосип Маротти, Вили Матула, Любо Капор, Эмиль Глад, Хелена Балджан, Владимир Ковачич

Описание: Художник приходит в лес, спит под волшебным вязом, который наделяет его способностью говорить со зверями, а его кисть становится волшебной. Художник (Питер) и звери начинают противостоять королю-Кактусу, который хочет подчинить себе весь лес. Но им надо успеть до рассвета — кисть перестанет быть волшебной, Питер не сможет понимать зверей, а Кактус сотрет лес с лица Земли.

_____

Видео: 720x544 (1.32:1), 25 fps, AVC(х264), High@L4.1, ~ 2100 Kbps, 0.14 bit/pixel
Аудио #1: 48.0 kHz, AC3, (Front: L R), 2 ch ~192 Kbps avg Профессиональный (полное дублирование)
Аудио #2: 48.0 kHz, AC3, (Front: L R), 2 ch ~192 Kbps avg Любительский (одноголосый) (отдельно)
Аудио #3: 48.0 kHz, AC3, (Front: L R), 2 ch ~192 Kbps avg Английский (оригинал) (отдельно)
Аудио #4: 48.0 kHz, AC3, (Front: L R), 2 ch ~192 Kbps avg Немецкий (дубляж) (отдельно)

Релиз-Группа: Автор:

Общее
Полное имя: chudesniy_les_[tfile.ru].mkv
Формат: Matroska
Размер файла: 896 Мбайт
Продолжительность: 1 ч. 18 м.
Общий поток: 1603 Кбит/сек
Дата кодирования: UTC 2011-10-11 12:38:52
Программа кодирования: mkvmerge v2.4.0 ('Fumbling Towards Ecstasy') built on Oct 11 2008 20:13:15
Библиотека кодирования: libebml v0.7.7 + libmatroska v0.8.1

Видео
Идентификатор: 1
Формат: AVC
Формат/Информация: Advanced Video Codec
Профиль формата: High@L4.1
Параметр CABAC формата: Да
Параметр ReFrames формата: 3 кадры
Идентификатор кодека: V_MPEG4/ISO/AVC
Продолжительность: 1 ч. 18 м.
Битрейт: 1379 Кбит/сек
Номинальный битрейт: 2100 Кбит/сек
Ширина: 720 пикс.
Высота: 544 пикс.
Соотношение сторон: 4:3
Частота кадров: 25,000 кадр/сек
Цветовое пространство: YUV
Подвыборка цветности: 4:2:0
Битовая глубина: 8 бит
Тип развёртки: Прогрессивная
Бит/(Пиксели*Кадры): 0.141
Размер потока: 771 Мбайт (86%)
Библиотека кодирования: x264 core 65 r999kMod cc51047
Настройки программы: cabac=1 / ref=3 / deblock=1:0:0 / analyse=0x3:0x133 / me=umh / subme=6 / psy_rd=1.0:0.0 / mixed_ref=1 / me_range=16 / chroma_me=1 / trellis=1 / 8x8dct=1 / cqm=0 / deadzone=21,11 / chroma_qp_offset=-2 / threads=2 / thread_queue=2 / nr=0 / decimate=1 / mbaff=0 / bframes=3 / b_pyramid=1 / b_adapt=1 / b_bias=0 / direct=3 / wpredb=1 / keyint=250 / keyint_min=25 / scenecut=40(pre) / rc=2pass / bitrate=2100 / ratetol=1.0 / qcomp=0.60 / qpmin=10 / qpmax=51 / qpstep=4 / cplxblur=20.0 / qblur=0.5 / ip_ratio=1.40 / pb_ratio=1.30 / aq=1:1.00

Аудио
Идентификатор: 2
Формат: AC-3
Формат/Информация: Audio Coding 3
Расширение режима: CM (complete main)
Идентификатор кодека: A_AC3
Продолжительность: 1 ч. 18 м.
Вид битрейта: Постоянный
Битрейт: 192 Кбит/сек
Канал(ы): 2 канала(ов)
Расположение каналов: Front: L R
Частота: 48,0 КГц
Битовая глубина: 16 бит
Метод сжатия: С потерями
Размер потока: 107 Мбайт (12%)










Поделиться:




реклама партнёра


Вернуться к началу
 Профиль Отправить личное сообщение  
 
   Похожие торренты   Автор   Торрент   Размер 
В этой теме нет новых непрочитанных сообщений. Лабиринт / Labyrinth [мюзикл, фэнтези, приключения, семейный, 1986] BDRip 1080p, 3Mvo+3Avo

salma3

62 | 46

8.8 ГБ

В этой теме нет новых непрочитанных сообщений. Рапунцель: Запутанная история / Tangled [мультфильм, мюзикл, фэнтези, мелодрама, комедия, семейный, 2010] BDRip-AVC, Dub

salma3

39 | 3

1.46 ГБ

В этой теме нет новых непрочитанных сообщений. Странная магия / Strange Magic (Гари Ридстром) [Мультфильм, Мюзикл, Фэнтези, Семейный, 2015] WEB-DLRip, Dub [iTunes]

Dracon

1 | 0

701.74 МБ

В этой теме нет новых непрочитанных сообщений. Странная магия / Strange Magic (Гари Ридстром) [Мультфильм, Мюзикл, Фэнтези, Семейный, 2015] WEB-DLRip, Dub [iTunes]

Dracon

14 | 1

1.37 ГБ

В этой теме нет новых непрочитанных сообщений. Красавица и чудовище / Beauty and the Beast [Мультфильм, Мюзикл, Фэнтези, Мелодрама, Семейный, 1991] BDRip 1080p, Dub+Sub [3D-Video]

Dracon

254 | 19

8.16 ГБ

В этой теме нет новых непрочитанных сообщений. Странная магия / Strange Magic (Гари Ридстром) [Мультфильм, Мюзикл, Фэнтези, Семейный, 2015] WEB-DLRip 1080p, Dub+Sub [iTunes]

Dracon

0 | 0

3.52 ГБ

В этой теме нет новых непрочитанных сообщений. Странная магия / Strange Magic (Гари Ридстром) [Мультфильм, Мюзикл, Фэнтези, Семейный, 2015] WEB-DLRip 720p, Dub+Sub [iTunes]

Dracon

0 | 0

3.34 ГБ


Начать новую тему Ответить на тему  [ 1 сообщение ] 




Для Мосгорсуда, Роскомнадзора и рекламодателей:: mosgorsud-torrent[собачка]yandex.ru