Торрент файл
скачать торрент магнет ссылка Добавлен: 23 янв 2012, 20:32
Размер: 1.46 ГБ
Сидеров: 2
Личеров: 5
Автор

СообщениеДобавлено: 23 янв 2012, 20:32 

Не в сети
Супермодератор
Аватара пользователя
Дата регистрации:
11 апр 2010, 18:10
Спасибо: 5962 / 7
Сообщения: 56765
Приключения кота Фрица / Fritz the Cat

Перевод: Профессиональный (многоголосый, закадровый), cубтитры: отсутствуют
Формат: DVDRip-AVC, MKV, H.264, AC3
Страна: США
Режиссер: Ральф Бакши
Жанр: мультфильм, комедия
Продолжительность: 01:15:11
Год выпуска: 1972

Описание: Весьма откровенный мультипликационный, полнометражный фильм для взрослых, основанный на персонажах, созданных Робертом Крамбом, забавен, развлекателен и великолепно демонстрирует вечные особенности молодых. Кот Фриц проходит через вереницу грубоватых и карикатурных политических приключений. Изумительная анимация и монтаж позволяют забыть о некоторых провалах в сюжете, так как за смехом их и не замечаешь. Сексуальные проделки, полицейские погони, гетто для чернокожих, революционеры на мотоциклах и много, много другого, поражающего зрителя богатством неуемной фантазии.



Видео: 720x576 (5:4), 25,000 fps, AVC High@L5.1, ~2353 kbps avg, 0.227 bit/pixel
Аудио#1:Русский: 48.0 kHz, AC3, (Front: L R) , 2 ch ~ 192 Kbps avg[Профессиональный (многоголосый, закадровый)]
Аудио#2:Английский: 48.0 kHz, AC3, (Front: L R) , 2 ch ~ 224 Kbps avg[Оригинал]

Автор рипа: Deep Fusion

Формат: Matroska
Версия формата: Version 1
Размер файла: 1,46 Гбайт
Продолжительность: 1 ч. 15 м.
Общий поток: 2774 Кбит/сек
Дата кодирования: UTC 2011-11-07 18:24:08
Программа кодирования: mkvmerge v2.2.0 ('Turn It On Again') built on Mar4 2008 13:20:25
Библиотека кодирования: libebml v0.7.7 + libmatroska v0.8.1

Видео
Идентификатор: 1
Формат: AVC
Формат/Информация: Advanced Video Codec
Профиль формата: High@L5.1
Параметр CABAC формата: Да
Параметр ReFrames формата: 4 кадра
Параметры GOP формата: M=1, N=3
Идентификатор кодека: V_MPEG4/ISO/AVC
Продолжительность: 1 ч. 15 м.
Битрейт: 2353 Кбит/сек
Ширина: 720 пикс.
Высота: 576 пикс.
Соотношение сторон: 5:4
Частота кадров: 25,000 кадр/сек
Стандарт вещания: PAL
Цветовое пространство: YUV
Подвыборка цветности: 4:2:0
Битовая глубина: 8 бит
Тип развёртки: Прогрессивная
Бит/(Пиксели*Кадры): 0.227
Размер потока: 1,21 Гбайт (83%)
Библиотека кодирования: x264 core 116 r2074 2641b9e
Настройки программы: cabac=1 / ref=3 / deblock=1:0:0 / analyse=0x3:0x113 / me=hex / subme=7 / psy=1 / psy_rd=1.00:0.00 / mixed_ref=1 / me_range=16 / chroma_me=1 / trellis=1 / 8x8dct=1 / cqm=0 / deadzone=21,11 / fast_pskip=1 / chroma_qp_offset=-2 / threads=3 / sliced_threads=0 / nr=0 / decimate=1 / interlaced=0 / bluray_compat=0 / constrained_intra=0 / bframes=3 / b_pyramid=2 / b_adapt=1 / b_bias=0 / direct=1 / weightb=1 / open_gop=0 / weightp=2 / keyint=250 / keyint_min=25 / scenecut=40 / intra_refresh=0 / rc_lookahead=40 / rc=2pass / mbtree=1 / bitrate=2353 / ratetol=1.0 / qcomp=0.60 / qpmin=0 / qpmax=69 / qpstep=4 / cplxblur=20.0 / qblur=0.5 / ip_ratio=1.40 / aq=1:1.00
Язык: English

Аудио #1
Идентификатор: 2
Формат: AC-3
Формат/Информация: Audio Coding 3
Расширение режима: CM (complete main)
Идентификатор кодека: A_AC3
Продолжительность: 1 ч. 15 м.
Вид битрейта: Постоянный
Битрейт: 192 Кбит/сек
Каналы: 2 канала
Расположение каналов: Front: L R
Частота: 48,0 КГц
Битовая глубина: 16 бит
Метод сжатия: С потерями
Размер потока: 103 Мбайт (7%)
Заголовок: Russian

Аудио #2
Идентификатор: 3
Формат: AC-3
Формат/Информация: Audio Coding 3
Расширение режима: CM (complete main)
Идентификатор кодека: A_AC3
Продолжительность: 1 ч. 15 м.
Вид битрейта: Постоянный
Битрейт: 224 Кбит/сек
Каналы: 2 канала
Расположение каналов: Front: L R
Частота: 48,0 КГц
Битовая глубина: 16 бит
Метод сжатия: С потерями
Размер потока: 120 Мбайт (8%)
Заголовок: English

















Поделиться:




реклама партнёра


Вернуться к началу
 Профиль Отправить личное сообщение  
 
   Похожие торренты   Автор   Торрент   Размер 
В этой теме нет новых непрочитанных сообщений. Приключения кота в сапогах / The Adventures of Puss in Boots [S03] [Мультсериал, комедия, приключения, семейный, 2016] WEBRip, Mvo [NewStudio]

salma3

105 | 32

3.02 ГБ

В этой теме нет новых непрочитанных сообщений. Приключения кота в сапогах / The Adventures of Puss in Boots [S02] [Мультсериал, комедия, приключения, семейный, 2016] WEBRip 720p, Mvo [NewStudio]

salma3

207 | 32

3.96 ГБ

В этой теме нет новых непрочитанных сообщений. Приключения кота в сапогах / The Adventures of Puss in Boots [2 сезон: 1-11 серия из 11] [Мультсериал, комедия, приключения, семейный, 2016] WEBRip [NewStudio]

Dracon

172 | 46

3.22 ГБ

В этой теме нет новых непрочитанных сообщений. Приключения кота в сапогах / The Adventures of Puss in Boots [01x01-15 из 15] (Даг Лэнгдэйл) [Мультсериал, комедия, приключения, семейный, 2015] WEBRip [NewStudio]

Dracon

914 | 329

4.32 ГБ

В этой теме нет новых непрочитанных сообщений. Приключения кота в сапогах / The Adventures of Puss in Boots [01x01-03 из XX] (Даг Лэнгдэйл) [2015, Мультсериал, комедия, приключения, семейный, WEBRip 720p | NewStudio]

Nickolas3435

136 | 9

1.63 ГБ

В этой теме нет новых непрочитанных сообщений. Приключения кота в сапогах / The Adventures of Puss in Boots [01x01-15 из 15] (Даг Лэнгдэйл) [Мультсериал, комедия, приключения, семейный, 2015] WEBRip 720p [NewStudio]

Dracon

245 | 149

6.43 ГБ

В этой теме нет новых непрочитанных сообщений. Невероятные приключения кота / Oggy et les cafards [комедия, 2013] BDRip [Лицензия]

salma3

148 | 9

1.45 ГБ


Начать новую тему Ответить на тему  [ 1 сообщение ] 




Для Мосгорсуда, Роскомнадзора и рекламодателей:: mosgorsud-torrent[собачка]yandex.ru