Торрент файл
скачать торрент магнет ссылка Добавлен: 23 янв 2012, 20:29
Размер: 1.37 ГБ
Сидеров: 30
Личеров: 5
Автор

СообщениеДобавлено: 23 янв 2012, 20:29 

Не в сети
Супермодератор
Аватара пользователя
Дата регистрации:
11 апр 2010, 18:10
Спасибо: 5801 / 7
Сообщения: 56779
Хеллбой: Меч громов / Hellboy Animated: Sword of Storms

Перевод: Любительский (двухголосый, закадровый), cубтитры: отсутствуют
Озвучивание: ZM и Venera
Формат: HDRip, AVI, XviD, AC3
Страна: США
Режиссер: Фил Вайнштейн / Phil Weinstein
Жанр: Мультфильм, фантастика, по мотивам комикса
Продолжительность: 01:17:40
Год выпуска: 2006
Роли озвучивали: Рон Перлман, Сэльма Блэр, Даг Джонс, Пери Гилпин, Ди Брэдли, Бейкер, Лиза Дел Мундо, Кейт Фергюсон, Ким Мэй Гест, Майкл Хагивара, Юриана Ким

Описание: Университетский профессор открывает запретный свиток и становится одержим древним японским демоном грома и молнии, который мечтает прорваться в наш мир, чтобы завладеть им. Бюро по Исследованию Паранормальных Явлений и Защите посылает Хэллбоя и его команду расследовать это дело, но когда Хэллбой поднимает самурайский меч, он бесследно исчезает в удивительном мире японских легенд, призраков и монстров. Агенты Кэйт Корриган и Рассел Торн следуют по-пятам за одержимым профессором, чтобы вернуть Хеллбоя обратно…

Видео: 720x400 (1.80:1), 23.976 fps, XviD build 50 ~2063 kbps avg, 0.30 bit/pixel
Аудио: 48 kHz, AC3 Dolby Digital, 3/2 (L,C,R,l,r) + LFE ch, ~448 kbps




C:\ZM\Hellboy.sword.of.storms.ZM-SHOW.avi
General
Complete name : C:\ZM\Hellboy.sword.of.storms.ZM-SHOW.avi
Format : AVI
Format/Info : Audio Video Interleave
File size : 1.37 GiB
Duration : 1h 17mn
Overall bit rate : 2 521 Kbps
Writing application : VirtualDubMod 1.5.10.2 (build 2540/release)
Writing library : VirtualDubMod build 2540/release
Video #0
ID : 0
Format : MPEG-4 Visual
Format profile : Advanced Simple@L5
Format settings, BVOP : 2
Format settings, QPel : No
Format settings, GMC : No warppoints
Format settings, Matrix : Default (H.263)
Codec ID : XVID
Codec ID/Hint : XviD
Duration : 1h 17mn
Bit rate : 2 064 Kbps
Width : 720 pixels
Height : 400 pixels
Display aspect ratio : 16:9
Frame rate : 23.976 fps
Color space : YUV
Chroma subsampling : 4:2:0
Bit depth : 8 bits
Scan type : Progressive
Compression mode : Lossy
Bits/(Pixel*Frame) : 0.299
Stream size : 1.12 GiB (82%)
Writing library : XviD 1.2.1 (UTC 2008-12-04)
Audio #1
ID : 1
Format : AC-3
Format/Info : Audio Coding 3
Mode extension : CM (complete main)
Codec ID : 2000
Duration : 1h 17mn
Bit rate mode : Constant
Bit rate : 448 Kbps
Channel(s) : 6 channels
Channel positions : Front: L C R, Side: L R, LFE
Sampling rate : 48.0 KHz
Bit depth : 16 bits
Compression mode : Lossy
Stream size : 249 MiB (18%)
Alignment : Split accross interleaves
Interleave, duration : 42 ms (1.00 video frame)
Interleave, preload duration : 500 ms








......................................................................................................................Релиз подготовлен группой ZM-SHOW
............................................................................................................
Поделиться:




реклама партнёра


Вернуться к началу
 Профиль Отправить личное сообщение  
 
   Похожие торренты   Автор   Торрент   Размер 
В этой теме нет новых непрочитанных сообщений. Хеллбой: Дилогия / Hellboy: Dilogy [фантастика, фэнтези, боевик, 2004-2008] BDRip 720p, Dub+Mvo+3Avo

salma3

31 | 13

23.05 ГБ

В этой теме нет новых непрочитанных сообщений. Любопытный Джордж 3 / Curious George 3: Back to the Jungle (Фил Вайнштейн) [мультфильм, 2015] HDRip, Dub [Чистый звук]

Dracon

207 | 21

1.37 ГБ

В этой теме нет новых непрочитанных сообщений. Небесный меч / Heavenly Sword (Ган Хо Джанг) [мультфильм, фэнтези, боевик, приключения, 2014] HDRip, avo

Dracon

12 | 2

1.36 ГБ

В этой теме нет новых непрочитанных сообщений. Небесный меч / Heavenly Sword (Ган Хо Джанг) [мультфильм, фэнтези, боевик, приключения, 2014] HDRip, dvo

Dracon

1 | 0

1.37 ГБ

В этой теме нет новых непрочитанных сообщений. Любопытный Джордж 3 / Curious George 3: Back to the Jungle (Фил Вайнштейн) [мультфильм, 2015] BDRip 720p, Dub [Чистый звук]

Dracon

150 | 46

3.38 ГБ

В этой теме нет новых непрочитанных сообщений. Сергей Лукьяненко, Александр Громов - Реверс [боевая фантастика, 2014] MP3, 80 kb/s

Dracon

348 | 3

559.72 МБ

В этой теме нет новых непрочитанных сообщений. Небесный меч / Heavenly Sword (Ган Хо Джанг) [2014, мультфильм, фэнтези, боевик, приключения, WEB-DLRip 720p]

Nickolas3435

367 | 36

2.91 ГБ


Начать новую тему Ответить на тему  [ 1 сообщение ] 




Для Мосгорсуда, Роскомнадзора и рекламодателей:: mosgorsud-torrent[собачка]yandex.ru