Торрент файл
скачать торрент магнет ссылка Добавлен: 23 янв 2012, 20:29
Размер: 728.38 МБ
Сидеров: 22
Личеров: 5
Автор

СообщениеДобавлено: 23 янв 2012, 20:29 

Не в сети
Супермодератор
Аватара пользователя
Дата регистрации:
11 апр 2010, 18:10
Спасибо: 5799 / 7
Сообщения: 56779
Все собаки празднуют Рождество / An All Dogs Christmas Carol


Перевод: Профессиональный (многоголосый, закадровый), cубтитры: отсутствуют
Формат: DVDRip, AVI, XviD, AC3
Страна: США
Режиссер: Пол Сабелла, Гари Сельваджио
Жанр: мультфильм, мюзикл, семейный
Продолжительность: 01:10:22
Год выпуска: 1998

В ролях: Эрнест Боргнайн, Дом ДеЛуиз, Шина Истон, Тейлор Эмерсон, Биби Нойуэрт, Чарльз Нельсон Рейли, Стивен Уэбер, Карлос Алазраки, Бет Андерсон, Ди Брэдли Бейкер

Описание: Рождество — особый праздник, провести который лучше всего в кругу семьи и друзей. Вот и собираются Чарли, Итчи, Саша, Карфейс и прочая собачья компания, чтобы разделить на всех праздничное веселье. Все складывалось прекрасно перед началом рождественской вечеринки в кафе «Блошиный Укус».
Великолепные подарки, блестящая мишура и даже солидная сумма пожертвований для Тимми — славного щенка, которому срочно требовалась операция на больной лапке. Но ни праздник ни угощения никак не могли обрадовать Карфейса — самого ворчливого из бульдогов.
Карфейс вовсе не любит рождественских празднеств. Вернее, просто ненавидит их! Вместе со своими дружками — хулиганами он разрабатывает план срыва всеобщего торжества.
Но неожиданно, подобно рождественским ангелам, появляются Чарли и Итчи. У них есть гениальная идея по спасению Рождества. Они знают, как превратить Карфейса, врага праздников, в настоящего сказочного героя!




Видео: 720 x 544 (1.32:1), 25 fps, XviD build 50 ~1245 kbps avg, 0.13 bit/pixel
Аудио: 48 kHz, AC3 Dolby Digital, 2/0 (L,R) ch, ~192 kbps

Релиз-Группа: Автор: Halisstra
Общее
Полное имя: an_all_dogs_christmas_carol_[tfile.ru].avi
Формат: AVI
Формат/Информация: Audio Video Interleave
Размер файла: 728 Мбайт
Продолжительность: 1 ч. 10 м.
Общий поток: 1447 Кбит/сек
Программа кодирования: VirtualDubMod 1.5.10.2 (build 2540/release)
Библиотека кодирования: VirtualDubMod build 2540/release

Видео
Идентификатор: 0
Формат: MPEG-4 Visual
Профиль формата: Advanced Simple@L5
Параметр BVOP формата: 3
Параметр QPel формата: Да
Параметр GMC формата: 3 точки перехода
Параметр матрицы формата: Default (H.263)
Идентификатор кодека: XVID
Идентификатор кодека/Подсказка: XviD
Продолжительность: 1 ч. 10 м.
Битрейт: 1245 Кбит/сек
Ширина: 720 пикс.
Высота: 544 пикс.
Соотношение сторон: 4:3
Частота кадров: 25,000 кадр/сек
Цветовое пространство: YUV
Подвыборка цветности: 4:2:0
Битовая глубина: 8 бит
Тип развёртки: Прогрессивная
Метод сжатия: С потерями
Бит/(Пиксели*Кадры): 0.127
Размер потока: 627 Мбайт (86%)
Библиотека кодирования: XviD 1.2.1 (UTC 2008-12-04)

Аудио
Идентификатор: 1
Формат: AC-3
Формат/Информация: Audio Coding 3
Расширение режима: CM (complete main)
Идентификатор кодека: 2000
Продолжительность: 1 ч. 10 м.
Вид битрейта: Постоянный
Битрейт: 192 Кбит/сек
Канал(ы): 2 канала(ов)
Расположение каналов: Front: L R
Частота: 48,0 КГц
Битовая глубина: 16 бит
Метод сжатия: С потерями
Размер потока: 96,6 Мбайт (13%)
Выравнивание: Разделение по промежуткам
Продолжительность промежутка: 40мс. (1,00 видеокадр)
Время предзагрузки промежутка: 500 ms









Поделиться:




реклама партнёра


Вернуться к началу
 Профиль Отправить личное сообщение  
 
   Похожие торренты   Автор   Торрент   Размер 
В этой теме нет новых непрочитанных сообщений. Кот Феликс спасает рождество / Котенок Феликс спасает Рождество / Miracle in Toyland [Мультфильм, мюзикл, семейный, 2004] DVDRip, Dvo

salma3

6 | 6

1.3 ГБ

В этой теме нет новых непрочитанных сообщений. Очень странное рождество / Рождество с волшебными родителями / A Fairly Odd Christmas (Сэвидж Стив Холланд) [2012, фэнтези, комедия, семейный, SATRip] DUB

Nickolas3435

35 | 6

1.08 ГБ

В этой теме нет новых непрочитанных сообщений. Странная магия / Strange Magic (Гари Ридстром) [Мультфильм, Мюзикл, Фэнтези, Семейный, 2015] WEB-DLRip, Dub [iTunes]

Dracon

1 | 0

701.74 МБ

В этой теме нет новых непрочитанных сообщений. Странная магия / Strange Magic (Гари Ридстром) [Мультфильм, Мюзикл, Фэнтези, Семейный, 2015] WEB-DLRip, Dub [iTunes]

Dracon

14 | 1

1.37 ГБ

В этой теме нет новых непрочитанных сообщений. Оленёнок Рудольф / Rudolph the Red-Nosed Reindeer: The Movie [Мультфильм, Семейный, Мюзикл, 1998] DVDRip, Dub+Avo

salma3

81 | 6

1.48 ГБ

В этой теме нет новых непрочитанных сообщений. Странная магия / Strange Magic (Гари Ридстром) [Мультфильм, Мюзикл, Фэнтези, Семейный, 2015] WEB-DLRip 1080p, Dub+Sub [iTunes]

Dracon

0 | 0

3.52 ГБ

В этой теме нет новых непрочитанных сообщений. Странная магия / Strange Magic (Гари Ридстром) [Мультфильм, Мюзикл, Фэнтези, Семейный, 2015] WEB-DLRip 720p, Dub+Sub [iTunes]

Dracon

0 | 0

3.34 ГБ


Начать новую тему Ответить на тему  [ 1 сообщение ] 




Для Мосгорсуда, Роскомнадзора и рекламодателей:: mosgorsud-torrent[собачка]yandex.ru