Торрент файл
скачать торрент магнет ссылка Добавлен: 23 янв 2012, 20:29
Размер: 721.15 МБ
Сидеров: 22
Личеров: 6
Автор

СообщениеДобавлено: 23 янв 2012, 20:29 

Не в сети
Супермодератор
Аватара пользователя
Дата регистрации:
11 апр 2010, 18:10
Спасибо: 5798 / 7
Сообщения: 56779
Аннабель / Annabelle's Wish


Перевод: Профессиональный (полное дублирование), cубтитры: отсутствуют

Формат: DVDRip-AVC, MKV, H.264, AC3
Страна: США
Режиссер: Рой Уилсон

Жанр: мультфильм, мюзикл, приключения, семейный
Продолжительность: 00:51:47
Год выпуска: 1997

В ролях: Рэнди Трэвис, Джей Джонсон, Джерри Ван Дайк, Джим Варни, Ру МакКлэнахан, Клорис Личмен, Ария Ноэль Курзон, Джеймс Лэфферти, Чарли Кронин, Дженнифер Дарлинг

Описание: Основанная на легенде, о том, что один день в канун Нового года животным дается способность говорить, эта сказка начинается, когда Аннабелль заводит дружбу с Билли, маленьким мальчиком, и обитателями фермы, на которой он живет вместе с дедушкой. Аннабелль доказывает всем, что настоящая дружба и бескорыстная любовь имеют магическую силу, которая может осуществить самую заветную мечту.



Видео: 720 x 544 (1.324) at 25.000 fps, AVC (H.264) at 1768 kbps avg, 0.181 bit/pixel
Аудио: 48.0 kHz, AC-3, 2 ch (Front: L R), ~192 kbps avg

Релиз-Группа: Автор: Halisstra
Общее
Полное имя: annabelle_[tfile.ru].mkv
Формат: Matroska
Размер файла: 721 Мбайт
Продолжительность: 51 м.
Общий поток: 1947 Кбит/сек
Дата кодирования: UTC 2011-12-07 12:55:58
Программа кодирования: mkvmerge v3.3.0 ('Language') built on Mar 24 2010 14:59:24
Библиотека кодирования: libebml v0.8.0 + libmatroska v0.9.0

Видео
Идентификатор: 1
Формат: AVC
Формат/Информация: Advanced Video Codec
Профиль формата: High@L3.0
Параметр CABAC формата: Да
Параметр ReFrames формата: 4 кадры
Идентификатор кодека: V_MPEG4/ISO/AVC
Продолжительность: 51 м.
Битрейт: 1768 Кбит/сек
Ширина: 720 пикс.
Высота: 544 пикс.
Соотношение сторон: 4:3
Частота кадров: 25,000 кадр/сек
Цветовое пространство: YUV
Подвыборка цветности: 4:2:0
Битовая глубина: 8 бит
Тип развёртки: Прогрессивная
Бит/(Пиксели*Кадры): 0.181
Размер потока: 636 Мбайт (88%)
Библиотека кодирования: x264 core 92 r1510 33d382a
Настройки программы: cabac=1 / ref=3 / deblock=1:0:0 / analyse=0x3:0x133 / me=hex / subme=5 / psy=1 / psy_rd=0.00:0.00 / mixed_ref=0 / me_range=16 / chroma_me=1 / trellis=1 / 8x8dct=1 / cqm=0 / deadzone=21,11 / fast_pskip=1 / chroma_qp_offset=0 / threads=3 / sliced_threads=0 / nr=0 / decimate=1 / interlaced=0 / constrained_intra=0 / bframes=16 / b_pyramid=2 / b_adapt=1 / b_bias=0 / direct=1 / wpredb=0 / wpredp=2 / keyint=250 / keyint_min=25 / scenecut=40 / intra_refresh=0 / rc_lookahead=40 / rc=abr / mbtree=1 / bitrate=1768 / ratetol=1.0 / qcomp=0.60 / qpmin=10 / qpmax=51 / qpstep=4 / ip_ratio=1.40 / aq=1:1.00

Аудио
Идентификатор: 2
Формат: AC-3
Формат/Информация: Audio Coding 3
Расширение режима: CM (complete main)
Идентификатор кодека: A_AC3
Продолжительность: 51 м.
Вид битрейта: Постоянный
Битрейт: 192 Кбит/сек
Канал(ы): 2 канала(ов)
Расположение каналов: Front: L R
Частота: 48,0 КГц
Битовая глубина: 16 бит
Метод сжатия: С потерями
Размер потока: 71,1 Мбайт (10%)











Поделиться:




реклама партнёра


Вернуться к началу
 Профиль Отправить личное сообщение  
 
   Похожие торренты   Автор   Торрент   Размер 
В этой теме нет новых непрочитанных сообщений. Проклятие Аннабель / Annabelle [ужасы, 2014] WEB-DL 720p, Dub [iTunes]

Dracon

12 | 2

3.31 ГБ

В этой теме нет новых непрочитанных сообщений. Проклятие Аннабель / Annabelle (Джон Р. Леонетти) [ужасы, 2014] BDRip, Dub [Лицензия]

Dracon

328 | 10

1.46 ГБ

В этой теме нет новых непрочитанных сообщений. Проклятие Аннабель / Annabelle (Джон Р. Леонетти) [ужасы, 2014] HDRip, Dub [iTunes]

Dracon

1241 | 48

1.46 ГБ

В этой теме нет новых непрочитанных сообщений. Проклятие Аннабель / Annabelle (Джон Р. Леонетти) [ужасы, 2014] DVD5, Dub+Sub [Лицензия]

Dracon

3 | 4

4.38 ГБ

В этой теме нет новых непрочитанных сообщений. Проклятие Аннабель / Annabelle (Джон Р. Леонетти) [ужасы, 2014] BDRip 1080p, Dub+Sub [iTunes]

Dracon

6 | 2

9.4 ГБ

В этой теме нет новых непрочитанных сообщений. Проклятие Аннабель / Annabelle (Джон Р. Леонетти) [ужасы, 2014] BDRip 720p, Dub+Sub [Лицензия]

Dracon

45 | 8

4.94 ГБ

В этой теме нет новых непрочитанных сообщений. Проклятие Аннабель / Annabelle (Джон Р. Леонетти) [ужасы, 2014] BDRip 720p, Dub [iTunes]

Dracon

3 | 2

4.63 ГБ


Начать новую тему Ответить на тему  [ 1 сообщение ] 




Для Мосгорсуда, Роскомнадзора и рекламодателей:: mosgorsud-torrent[собачка]yandex.ru