Торрент файл
скачать торрент магнет ссылка Добавлен: 23 янв 2012, 20:29
Размер: 701.01 МБ
Сидеров: 28
Личеров: 5
Автор

СообщениеДобавлено: 23 янв 2012, 20:29 

Не в сети
Супермодератор
Аватара пользователя
Дата регистрации:
11 апр 2010, 18:10
Спасибо: 5798 / 7
Сообщения: 56779
Кевин в стране Драконов / Dragon Hill. La colina del dragon


Слоган: «Развеселись с улетными героями!»

Перевод: Профессиональный (полное дублирование), cубтитры: отсутствуют
Формат: DVDRip, AVI, XviD, AC3
Страна: Испания
Режиссер: Анхель Изкуэрдо
Жанр: мультфильм, фэнтези, приключения, семейный
Продолжительность: 01:13:46
Год выпуска: 2002

В ролях: Роберт Паттерсон, Сью Флэк, Джошуа Замруский, Амбер Окрасса

Описание: История о жизни в Стране Драконов, которая существует в параллельном, невидимом мире среди живописных скал и бурных водопадов. Двери Страны Драконов всегда открыты для людей, готовых поверить в чудо, в ком еще не угасли дух приключений, жажда великих подвигов и гениальных открытий.

Но даже здесь, в самом сердце этой солнечной земли, притаилось зло и коварство. Колдун Септимус, заточенный в этом месте за свои злодеяния, стремится вернуться в мир людей и покорить его, захватив несметные сокровища Страны Драконов. Он не остановится ни перед чем, чтобы воплотить свой безумный план.

Кевин, случайно оказавшийся в Стране Драконов, попадает в стремительный водоворот событий. И только великая сила дружбы людей и драконов, их смелость и смекалка, помогут остановить зло…




Видео: 720 x 544 (1.32:1), 25 fps, XviD build 50 ~1126 kbps avg, 0.12 bit/pixel
Аудио: 48 kHz, AC3 Dolby Digital, 3/2 (L,C,R,l,r) + LFE ch, ~192 kbps

Релиз-Группа: Автор: Halisstra
Общее
Полное имя: kevin_v_strane_drakonov_[tfile.ru].avi
Формат: AVI
Формат/Информация: Audio Video Interleave
Размер файла: 701 Мбайт
Продолжительность: 1 ч. 13 м.
Общий поток: 1329 Кбит/сек
Программа кодирования: VirtualDubMod 1.5.10.2 (build 2540/release)
Библиотека кодирования: VirtualDubMod build 2540/release

Видео
Идентификатор: 0
Формат: MPEG-4 Visual
Профиль формата: Advanced Simple@L5
Параметр BVOP формата: 2
Параметр QPel формата: Нет
Параметр GMC формата: Без точки перехода
Параметр матрицы формата: Default (H.263)
Идентификатор кодека: XVID
Идентификатор кодека/Подсказка: XviD
Продолжительность: 1 ч. 13 м.
Битрейт: 1127 Кбит/сек
Ширина: 720 пикс.
Высота: 544 пикс.
Соотношение сторон: 4:3
Частота кадров: 25,000 кадр/сек
Цветовое пространство: YUV
Подвыборка цветности: 4:2:0
Битовая глубина: 8 бит
Тип развёртки: Прогрессивная
Метод сжатия: С потерями
Бит/(Пиксели*Кадры): 0.115
Размер потока: 595 Мбайт (85%)
Библиотека кодирования: XviD 1.2.1 (UTC 2008-12-04)

Аудио
Идентификатор: 1
Формат: AC-3
Формат/Информация: Audio Coding 3
Расширение режима: CM (complete main)
Идентификатор кодека: 2000
Продолжительность: 1 ч. 13 м.
Вид битрейта: Постоянный
Битрейт: 192 Кбит/сек
Канал(ы): 6 канала(ов)
Расположение каналов: Front: L C R, Side: L R, LFE
Частота: 48,0 КГц
Битовая глубина: 16 бит
Метод сжатия: С потерями
Размер потока: 101 Мбайт (14%)
Выравнивание: Разделение по промежуткам
Продолжительность промежутка: 40мс. (1,00 видеокадр)
Время предзагрузки промежутка: 500 ms










Поделиться:




реклама партнёра


Вернуться к началу
 Профиль Отправить личное сообщение  
 
   Похожие торренты   Автор   Торрент   Размер 
В этой теме нет новых непрочитанных сообщений. Как приручить дракона 2 / How to Train Your Dragon 2 [мультфильм, фэнтези, комедия, приключения, семейный, 2014] CAMRip, Dub

hobbit1021

1041 | 19

1.36 ГБ

В этой теме нет новых непрочитанных сообщений. Как приручить дракона 2 / How to Train Your Dragon 2 [мультфильм, фэнтези, комедия, приключения, семейный, 2014] DVD9, Dub+Sub [лицензия]

Dracon

49 | 2

7.54 ГБ

В этой теме нет новых непрочитанных сообщений. Как приручить дракона 2 / How to Train Your Dragon 2 [мультфильм, фэнтези, комедия, приключения, семейный, 2014] Blu-Ray 1080p, Dub+Sub [лицензия]

Dracon

29 | 3

37.53 ГБ

В этой теме нет новых непрочитанных сообщений. Как приручить дракона 2 / How to Train Your Dragon 2 [мультфильм, фэнтези, комедия, приключения, семейный, 2014] HDRip, Dub [лицензия]

Dracon

246 | 9

1.37 ГБ

В этой теме нет новых непрочитанных сообщений. Гнездо Дракона / Dragon Nest: Warriors' Dawn [мультфильм, фэнтези, приключения, семейный, 2014] WEBRip, dvo

Dracon

231 | 8

1.37 ГБ

В этой теме нет новых непрочитанных сообщений. Как приручить дракона 2  / How to Train Your Dragon 2 [мультфильм, фэнтези, комедия, приключения, семейный, 2014] WEB-DL 720p, Dub [iTunes]

Dracon

28 | 2

3.43 ГБ

В этой теме нет новых непрочитанных сообщений. Как приручить дракона 2  / How to Train Your Dragon 2 [мультфильм, фэнтези, комедия, приключения, семейный, 2014] WEB-DLRip, Dub [iTunes]

Dracon

814 | 6

1.46 ГБ


Начать новую тему Ответить на тему  [ 1 сообщение ] 




Для Мосгорсуда, Роскомнадзора и рекламодателей:: mosgorsud-torrent[собачка]yandex.ru