Торрент файл
скачать торрент магнет ссылка Добавлен: 23 янв 2012, 20:28
Размер: 747.21 МБ
Сидеров: 74
Личеров: 6
Автор

СообщениеДобавлено: 23 янв 2012, 20:28 

Не в сети
Супермодератор
Аватара пользователя
Дата регистрации:
11 апр 2010, 18:10
Спасибо: 5994 / 7
Сообщения: 56686
Хортон / Horton Hears a Who!


Перевод: Профессиональный (полное дублирование), cубтитры: отсутствуют

Формат: HDRip, AVI, XviD, MP3
Страна: США
Режиссер: Джимми Хейуорд, Стив Мартино

Жанр: мультфильм, комедия, приключения, семейный
Продолжительность: 01:26:10
Год выпуска: 2008

В ролях: Джим Керри, Стив Карелл, Кэрол Бёрнетт, Уилл Арнетт, Сет Роген, Дэн Фоглер, Айла Фишер, Джона Хилл, Эми Полер, Джейми Прессли

Описание: У слоненка Хортона такие большие уши, что он, оказывается, может слышать даже то, как с ним говорит цветок. Вернее, существа, которые живут в нем. Но если слоненок начинает говорить и прислушиваться к цветку, наверное он ненормальный? Так посчитали все звери. Но Хортону все равно. Он считает своим долгом спасти население цветка от угрозы извне.




Видео: 704 x 384 (1.83:1), 23.976 fps, XviD build 50 ~1013 kbps avg, 0.16 bit/pixel
Аудио: 48 kHz, MPEG Layer 3, 2 ch, ~185.83 kbps avg

Релиз-Группа: Автор: Halisstra
Общее
Полное имя: horton_hears_a_who_[tfile.ru].avi
Формат: AVI
Формат/Информация: Audio Video Interleave
Размер файла: 747 Мбайт
Продолжительность: 1 ч. 26 м.
Общий поток: 1212 Кбит/сек
Программа кодирования: VirtualDubMod 1.5.10.2 (build 2540/release)
Библиотека кодирования: VirtualDubMod build 2540/release

Видео
Идентификатор: 0
Формат: MPEG-4 Visual
Профиль формата: Advanced Simple@L5
Параметр BVOP формата: 1
Параметр QPel формата: Нет
Параметр GMC формата: Без точки перехода
Параметр матрицы формата: Default (H.263)
Идентификатор кодека: XVID
Идентификатор кодека/Подсказка: XviD
Продолжительность: 1 ч. 26 м.
Битрейт: 1014 Кбит/сек
Ширина: 704 пикс.
Высота: 384 пикс.
Соотношение сторон: 16:9
Частота кадров: 23,976 кадр/сек
Цветовое пространство: YUV
Подвыборка цветности: 4:2:0
Битовая глубина: 8 бит
Тип развёртки: Прогрессивная
Метод сжатия: С потерями
Бит/(Пиксели*Кадры): 0.156
Размер потока: 625 Мбайт (84%)
Библиотека кодирования: XviD 1.2.1 (UTC 2008-12-04)

Аудио
Идентификатор: 1
Формат: MPEG Audio
Версия формата: Version 1
Профиль формата: Layer 3
Идентификатор кодека: 55
Идентификатор кодека/Подсказка: MP3
Продолжительность: 1 ч. 26 м.
Вид битрейта: Переменный
Битрейт: 192 Кбит/сек
Канал(ы): 2 канала(ов)
Частота: 48,0 КГц
Метод сжатия: С потерями
Размер потока: 114 Мбайт (15%)
Выравнивание: Соединение по промежуткам
Продолжительность промежутка: 24мс. (0,58 видеокадр)
Время предзагрузки промежутка: 99 ms
Библиотека кодирования: LAME3.98r
Настройки программы: -m s -V 4 -q 2 -lowpass 18.6 --abr 192











Поделиться:



Вернуться к началу
 Профиль Отправить личное сообщение  
 
   Похожие торренты   Автор   Торрент   Размер 
В этой теме нет новых непрочитанных сообщений. Альфа и Омега 5: Семейный отдых [Мультфильм, комедия, приключения, семейный, полнометражный, 2015] HDRip, Dub

Dracon

297 | 16

663.21 МБ

В этой теме нет новых непрочитанных сообщений. Эволюция / Pourquoi j'ai pas mangé mon père [мультфильм, комедия, приключения, семейный, 2015] HDRip, Mvo

salma3

463 | 34

1.37 ГБ

В этой теме нет новых непрочитанных сообщений. Дом / Home (Тим Джонсон) [мультфильм, фантастика, фэнтези, комедия, приключения, семейный, 2015] HDRip, Dub [iTunes]

Dracon

6 | 0

1.37 ГБ

В этой теме нет новых непрочитанных сообщений. Аисты / Storks [мультфильм, фэнтези, комедия, приключения, семейный, 2016] HDRip, Dub [чистый звук]

salma3

4966 | 547

1.37 ГБ

В этой теме нет новых непрочитанных сообщений. Волки и овцы: бе-е-е-зумное превращение [Мультфильм, семейный, комедия, приключения, 2016] HDRip [iTunes]

salma3

1213 | 308

1.37 ГБ

В этой теме нет новых непрочитанных сообщений. Аисты / Storks (мультфильм, фэнтези, комедия, семейный, приключения, 2016) HDRip от Scarabey | iTunes

marya111

1209 | 163

745.24 МБ

В этой теме нет новых непрочитанных сообщений. Волки и овцы: бе-е-е-зумное превращение (мультфильм, семейный, комедия, приключения, 2016) HDRip от Scarabey | iTunes

marya111

167 | 13

1.41 ГБ


Начать новую тему Ответить на тему  [ 1 сообщение ] 




Для Мосгорсуда, Роскомнадзора и рекламодателей:: mosgorsud-torrent[собачка]yandex.ru
cron