Торрент файл
скачать торрент магнет ссылка Добавлен: 23 янв 2012, 20:27
Размер: 1.36 ГБ
Сидеров: 20
Личеров: 5
Автор

СообщениеДобавлено: 23 янв 2012, 20:27 

Не в сети
Супермодератор
Аватара пользователя
Дата регистрации:
11 апр 2010, 18:10
Спасибо: 5994 / 7
Сообщения: 56686
Секрет Н.И.М.Х. / The Secret of NIMH


Перевод:*Профессиональный (полное дублирование),
________ *Профессиональный (многоголосый, закадровый)

Субтитры:отсутствуют
Формат: HDRip, AVI, XviD, AC3
Страна: США
Режиссер: Дон Блут
Жанр: мультфильм, фантастика, фэнтези, драма, семейный
Продолжительность: 01:22:44
Год выпуска: 1982

В ролях: Дерек Джекоби, Элизабет Хартман, Артур Мэлет, Дом ДеЛуиз, Гермиона Бадделей, Шэннен Доэрти, Уил Уитон, Джоди Хикс, Йен Фрид, Джон Кэррадайн

Описание: Сражаясь за спасение своего домика от разрушения фермером Фицджиббом, миссис Бризби прибегает к помощи своих друзей, среди которых красавица — ворона, мудрая сова и несколько невероятно сообразительных крыс.



Видео: 704 x 384 (1.83:1), 23.976 fps, XviD build 50 ~1946 kbps avg, 0.30 bit/pixel
Аудио#1:Русский:48 kHz, AC3 Dolby Digital, 2/0 (L,R) ch, ~192 kbps [Профессиональный (полное дублирование)]
Аудио#2:Русский:48 kHz, AC3 Dolby Digital, 2/0 (L,R) ch, ~192 kbps [Профессиональный (многоголосый, закадровый)]

Релиз-Группа: Автор: Halisstra

Сатурн, 1983 год

Победитель (1): * Лучший анимационный фильм

Номинации (1): * Лучший фэнтези-фильм
Общее
Полное имя: the_secret_of_nimh_[tfile.ru].avi
Формат: AVI
Формат/Информация: Audio Video Interleave
Размер файла: 1,36 Гбайт
Продолжительность: 1 ч. 22 м.
Общий поток: 2345 Кбит/сек
Программа кодирования: VirtualDubMod 1.5.10.2 (build 2540/release)
Библиотека кодирования: VirtualDubMod build 2540/release

Видео
Идентификатор: 0
Формат: MPEG-4 Visual
Профиль формата: Advanced Simple@L5
Параметр BVOP формата: 1
Параметр QPel формата: Нет
Параметр GMC формата: Без точки перехода
Параметр матрицы формата: Default (H.263)
Идентификатор кодека: XVID
Идентификатор кодека/Подсказка: XviD
Продолжительность: 1 ч. 22 м.
Битрейт: 1946 Кбит/сек
Ширина: 704 пикс.
Высота: 384 пикс.
Соотношение сторон: 16:9
Частота кадров: 23,976 кадр/сек
Цветовое пространство: YUV
Подвыборка цветности: 4:2:0
Битовая глубина: 8 бит
Тип развёртки: Прогрессивная
Метод сжатия: С потерями
Бит/(Пиксели*Кадры): 0.300
Размер потока: 1,13 Гбайт (83%)
Библиотека кодирования: XviD 1.2.1 (UTC 2008-12-04)

Аудио #1
Идентификатор: 1
Формат: AC-3
Формат/Информация: Audio Coding 3
Расширение режима: CM (complete main)
Идентификатор кодека: 2000
Продолжительность: 1 ч. 22 м.
Вид битрейта: Постоянный
Битрейт: 192 Кбит/сек
Канал(ы): 2 канала(ов)
Расположение каналов: Front: L R
Частота: 48,0 КГц
Битовая глубина: 16 бит
Метод сжатия: С потерями
Размер потока: 114 Мбайт (8%)
Выравнивание: Разделение по промежуткам
Продолжительность промежутка: 42мс. (1,00 видеокадр)
Время предзагрузки промежутка: 500 ms

Аудио #2
Идентификатор: 2
Формат: AC-3
Формат/Информация: Audio Coding 3
Расширение режима: CM (complete main)
Идентификатор кодека: 2000
Продолжительность: 1 ч. 22 м.
Вид битрейта: Постоянный
Битрейт: 192 Кбит/сек
Канал(ы): 2 канала(ов)
Расположение каналов: Front: L R
Частота: 48,0 КГц
Битовая глубина: 16 бит
Метод сжатия: С потерями
Размер потока: 114 Мбайт (8%)
Выравнивание: Разделение по промежуткам
Продолжительность промежутка: 42мс. (1,00 видеокадр)
Время предзагрузки промежутка: 500 ms










Поделиться:



Вернуться к началу
 Профиль Отправить личное сообщение  
 
   Похожие торренты   Автор   Торрент   Размер 
В этой теме нет новых непрочитанных сообщений. Секрет Зоар / The Zohar Secret (Владэк Занковски) [2015, фантастика, драма, комедия, WEBRip]

Dracon

1408 | 60

1.04 ГБ

В этой теме нет новых непрочитанных сообщений. Секрет Зоар / The Zohar Secret (Владэк Занковски) [2015, фантастика, драма, комедия, WEBRip 720p]

Dracon

3385 | 93

1.89 ГБ

В этой теме нет новых непрочитанных сообщений. Снеговик / The Snowman [мультфильм, короткометражка, фэнтези, приключения, семейный, 1982] BDRip-AVC

salma3

3 | 1

1.45 ГБ

В этой теме нет новых непрочитанных сообщений. Инопланетянин / E.T. the Extra-Terrestrial [фантастика, фэнтези, драма, 1982] HDRip-AVC, Dub

salma3

35 | 18

745.92 МБ

В этой теме нет новых непрочитанных сообщений. Дом / Home (Тим Джонсон) [мультфильм, фантастика, фэнтези, комедия, приключения, семейный, 2015] HDRip, Dub [iTunes]

Dracon

6 | 0

1.37 ГБ

В этой теме нет новых непрочитанных сообщений. Невероятная тайна Лулу / Loulou, l'incroyable secret (Эрик Омон) [мультфильм, семейный, 2013] HDRip, Dub [iTunes]

Dracon

494 | 63

1.37 ГБ

В этой теме нет новых непрочитанных сообщений. Тайная жизнь домашних животных / The Secret Life of Pets (Мультфильм, комедия, семейный, 2016) HDRip от MegaPeer | Line

marya111

41 | 7

1.42 ГБ


Начать новую тему Ответить на тему  [ 1 сообщение ] 




Для Мосгорсуда, Роскомнадзора и рекламодателей:: mosgorsud-torrent[собачка]yandex.ru
cron