Торрент файл
скачать торрент магнет ссылка Добавлен: 23 янв 2012, 20:27
Размер: 1.79 ГБ
Сидеров: 112
Личеров: 9
Автор

СообщениеДобавлено: 23 янв 2012, 20:27 

Не в сети
Супермодератор
Аватара пользователя
Дата регистрации:
11 апр 2010, 18:10
Спасибо: 5801 / 7
Сообщения: 56779
Кунг-фу Панда 2 / Kung Fu Panda 2


Перевод:
    Профессиональный (полное дублирование) [Украинский]
  • Профессиональный (полное дублирование) [Русский]
Субтитры: отсутствуют
Формат: HDRip, AVI, XviD, AC3
Страна: США
Режиссер: Дженнифер Ю
Жанр: мультфильм, боевик, комедия, приключения, семейный
Продолжительность: 01:30:23
Год выпуска: 2011

В ролях: Джек Блэк, Анджелина Джоли, Дастин Хоффман, Гари Олдман, Джеки Чан, Сет Роген, Люси Лью, Дэвид Кросс, Джеймс Хонг, Мишель Йео

Описание: Панда По наконец-то исполнит свою мечту, станет Воином Дракона и со своими друзьями и мастерами кунг-фу — Неистовой Пятеркой — защитит Великую Долину от страшного злодея и его легиона…




Видео: 704 x 384 (1.83:1), 23.976 fps, XviD build 50 ~1667 kbps avg, 0.26 bit/pixel

Аудио#1: Украинский: 48 kHz, AC3 Dolby Digital, 3/2 (L,C,R,l,r) + LFE ch, ~384 kbps [Профессиональный (полное дублирование)]
Аудио#2: Русский: 48 kHz, AC3 Dolby Digital, 3/2 (L,C,R,l,r) + LFE ch, ~384 kbps [Профессиональный (полное дублирование)]
Аудио#3: Английский: 48 kHz, AC3 Dolby Digital, 3/2 (L,C,R,l,r) + LFE ch, ~384 kbps [Оригинал]

Релиз-Группа: Автор: Halisstra

Общее
Полное имя: kung_fu_panda_2_[tfile.ru].avi
Формат: AVI
Формат/Информация: Audio Video Interleave
Размер файла: 1,79 Гбайт
Продолжительность: 1 ч. 30 м.
Общий поток: 2837 Кбит/сек
Программа кодирования: VirtualDubMod 1.5.10.2 (build 2540/release)
Библиотека кодирования: VirtualDubMod build 2540/release

Видео
Идентификатор: 0
Формат: MPEG-4 Visual
Профиль формата: Advanced Simple@L5
Параметр BVOP формата: 1
Параметр QPel формата: Нет
Параметр GMC формата: Без точки перехода
Параметр матрицы формата: Default (H.263)
Идентификатор кодека: XVID
Идентификатор кодека/Подсказка: XviD
Продолжительность: 1 ч. 30 м.
Битрейт: 1667 Кбит/сек
Ширина: 704 пикс.
Высота: 384 пикс.
Соотношение сторон: 16:9
Частота кадров: 23,976 кадр/сек
Цветовое пространство: YUV
Подвыборка цветности: 4:2:0
Битовая глубина: 8 бит
Тип развёртки: Прогрессивная
Метод сжатия: С потерями
Бит/(Пиксели*Кадры): 0.257
Размер потока: 1,05 Гбайт (59%)
Библиотека кодирования: XviD 1.2.1 (UTC 2008-12-04)

Аудио #1
Идентификатор: 1
Формат: AC-3
Формат/Информация: Audio Coding 3
Расширение режима: CM (complete main)
Идентификатор кодека: 2000
Продолжительность: 1 ч. 30 м.
Вид битрейта: Постоянный
Битрейт: 384 Кбит/сек
Канал(ы): 6 канала(ов)
Расположение каналов: Front: L C R, Side: L R, LFE
Частота: 48,0 КГц
Битовая глубина: 16 бит
Метод сжатия: С потерями
Размер потока: 248 Мбайт (14%)
Выравнивание: Разделение по промежуткам
Продолжительность промежутка: 42мс. (1,00 видеокадр)
Время предзагрузки промежутка: 500 ms

Аудио #2
Идентификатор: 2
Формат: AC-3
Формат/Информация: Audio Coding 3
Расширение режима: CM (complete main)
Идентификатор кодека: 2000
Продолжительность: 1 ч. 30 м.
Вид битрейта: Постоянный
Битрейт: 384 Кбит/сек
Канал(ы): 6 канала(ов)
Расположение каналов: Front: L C R, Side: L R, LFE
Частота: 48,0 КГц
Битовая глубина: 16 бит
Метод сжатия: С потерями
Размер потока: 248 Мбайт (14%)
Выравнивание: Разделение по промежуткам
Продолжительность промежутка: 42мс. (1,00 видеокадр)
Время предзагрузки промежутка: 500 ms

Аудио #3
Идентификатор: 3
Формат: AC-3
Формат/Информация: Audio Coding 3
Расширение режима: CM (complete main)
Идентификатор кодека: 2000
Продолжительность: 1 ч. 30 м.
Вид битрейта: Постоянный
Битрейт: 384 Кбит/сек
Канал(ы): 6 канала(ов)
Расположение каналов: Front: L C R, Side: L R, LFE
Частота: 48,0 КГц
Битовая глубина: 16 бит
Метод сжатия: С потерями
Размер потока: 248 Мбайт (14%)
Выравнивание: Разделение по промежуткам
Продолжительность промежутка: 42мс. (1,00 видеокадр)
Время предзагрузки промежутка: 500 ms












Поделиться:




реклама партнёра


Вернуться к началу
 Профиль Отправить личное сообщение  
 
   Похожие торренты   Автор   Торрент   Размер 
В этой теме нет новых непрочитанных сообщений. Кунг-фу Панда 3 / Kung Fu Panda 3 (Алессандро Карлони, Дженнифер Ю) [2016, Мультфильм, боевик, комедия, приключения, семейный, HDRip | Лицензия] Dub

marya111

22 | 2

744.91 МБ

В этой теме нет новых непрочитанных сообщений. Кунг-фу Панда 3 / Kung Fu Panda 3 (Алессандро Карлони, Дженнифер Ю) [2016, мультфильм, боевик, комедия, приключения, семейный, BDRip | Лицензия] Dub

marya111

0 | 0

1.45 ГБ

В этой теме нет новых непрочитанных сообщений. Кунг-фу Панда 3 / Kung Fu Panda 3 (Алессандро Карлони, Дженнифер Ю) [2016, Мультфильм, боевик, комедия, приключения, семейный, BDRip-AVC | Лицензия] Dub

marya111

51 | 1

2.45 ГБ

В этой теме нет новых непрочитанных сообщений. Кунг-фу Панда 3 / Kung Fu Panda 3 (Алессандро Карлони, Дженнифер Ю) [2016, мультфильм, боевик, комедия, приключения, семейный, BDRip 720p | Лицензия] Dub

marya111

0 | 0

4.05 ГБ

В этой теме нет новых непрочитанных сообщений. Кунг-фу Панда 3 / Kung Fu Panda 3 (Алессандро Карлони, Дженнифер Ю) [2016, мультфильм, боевик, комедия, приключения, семейный, BDRip 1080p | Лицензия] Dub

marya111

0 | 0

7.2 ГБ

В этой теме нет новых непрочитанных сообщений. Кунг-фу Панда:Трилогия / Kung Fu Panda:Trilogy (Марк Осборн, Джон Стивенсон,Алессандро Карлони, Дженнифер Ю) [2008-2016, Мультфильм, боевик, комедия, приключения, семейный , BDRip 1080p] [DD5.1] [Dub Rus , Ukr , Eng]+[Sub Rus , Ukr , Eng][

Враг Нароода

3 | 7

27.41 ГБ

В этой теме нет новых непрочитанных сообщений. Кунг-фу Панда 3 / Kung Fu Panda 3 [мультфильм, боевик, комедия, приключения, семейный, 2016] Blu-Ray, Dub [Лицензия]

salma3

21 | 9

38.98 ГБ


Начать новую тему Ответить на тему  [ 1 сообщение ] 




Для Мосгорсуда, Роскомнадзора и рекламодателей:: mosgorsud-torrent[собачка]yandex.ru