Торрент файл
скачать торрент магнет ссылка Добавлен: 23 янв 2012, 20:27
Размер: 1.04 ГБ
Сидеров: 6
Личеров: 5
Автор

СообщениеДобавлено: 23 янв 2012, 20:27 

Не в сети
Супермодератор
Аватара пользователя
Дата регистрации:
11 апр 2010, 18:10
Спасибо: 5960 / 7
Сообщения: 56765
Рождество Герми и его друзей / Hermie & Friends: A Fruitcake Christmas

Перевод: Профессиональный (многоголосый, закадровый), cубтитры: отсутствуют
Формат: DVDRip, AVI, XviD, AC3
Страна: США, Ирландия
Режиссер: Трой Шмидт
Жанр: фэнтези
Продолжительность: 00:45:01
Год выпуска: 2005
В ролях: Рик Бургесс, Тим Конуэй, Мелисса Дисней, Уилл Ховард, Дон Ноттс, Роб Потторф.
Описание: Герми и его друзья готовятся отмечать Рождество. Они наряжают елку, готовят подарки и розыгрыши. И больше всего они ждут когда бабушка Герми привезет его любимый фруктовый пирог. Но злобные тараканы Игги и Зиги не хотят, чтобы Рождество наступило и постоянно подстраивают всякие гадости. Друзья решают перевоспитать противных тараканов, чтобы те не испортили веселый праздник.

Видео: 720x480(1.33:1), 23,976 fps, XviD MPEG-4 Visual 2871 kbps avg, 0.346 bit/pixel
Аудио#1: английский 48.0 KHz, AC3 6 ch (Front: L R), ~448 Kbps avg [Оригинал]
Аудио#2: русский 48,0 KHz, AC3 6 ch (Front: L R), ~448 Kbps avg [многоголосый закадровый][/field]
Общее
Полное имя: D:\Vidio\Germi.avi
Формат: AVI
Формат/Информация: Audio Video Interleave
Размер файла: 1,04 Гбайт
Продолжительность: 39 м.
Общий поток: 3776 Кбит/сек
Программа кодирования: VirtualDubMod 1.5.4.1 (build 2178/release)
Библиотека кодирования: VirtualDubMod build 2178/release

Видео
Идентификатор: 0
Формат: MPEG-4 Visual
Профиль формата: Simple@L3
Параметр BVOP формата: Нет
Параметр QPel формата: Нет
Параметр GMC формата: Без точки перехода
Параметр матрицы формата: Выборочная
Идентификатор кодека: XVID
Идентификатор кодека/Подсказка: XviD
Продолжительность: 39 м.
Битрейт: 2871 Кбит/сек
Ширина: 720 пикс.
Высота: 480 пикс.
Соотношение сторон: 3:2
Частота кадров: 23,976 кадр/сек
Стандарт вещания: NTSC
Цветовое пространство: YUV
Подвыборка цветности: 4:2:0
Битовая глубина: 8 бит
Тип развёртки: Прогрессивная
Метод сжатия: С потерями
Бит/(Пиксели*Кадры): 0.346
Размер потока: 806 Мбайт (76%)
Библиотека кодирования: XviD 1.0.1 (UTC 2004-06-05)

Аудио #1
Идентификатор: 1
Формат: AC-3
Формат/Информация: Audio Coding 3
Расширение режима: CM (complete main)
Идентификатор кодека: 2000
Продолжительность: 39 м.
Вид битрейта: Постоянный
Битрейт: 448 Кбит/сек
Каналы: 6 каналов
Расположение каналов: Front: L C R, Side: L R, LFE
Частота: 48,0 КГц
Битовая глубина: 16 бит
Метод сжатия: С потерями
Размер потока: 126 Мбайт (12%)
Выравнивание: Разделение по промежуткам
Продолжительность промежутка: 96мс. (2,30 видеокадра)
Время предзагрузки промежутка: 96 ms

Аудио #2
Идентификатор: 2
Формат: AC-3
Формат/Информация: Audio Coding 3
Расширение режима: CM (complete main)
Идентификатор кодека: 2000
Продолжительность: 39 м.
Вид битрейта: Постоянный
Битрейт: 448 Кбит/сек
Каналы: 6 каналов
Расположение каналов: Front: L C R, Side: L R, LFE
Частота: 48,0 КГц
Битовая глубина: 16 бит
Метод сжатия: С потерями
Размер потока: 126 Мбайт (12%)
Выравнивание: Разделение по промежуткам
Продолжительность промежутка: 96мс. (2,30 видеокадра)
Время предзагрузки промежутка: 96 ms









Поделиться:




реклама партнёра


Вернуться к началу
 Профиль Отправить личное сообщение  
 
   Похожие торренты   Автор   Торрент   Размер 
В этой теме нет новых непрочитанных сообщений. Северный полюс: Открыт на Рождество / Northpole: Open for Christmas [фэнтези, 2015] DVDRip, Dub

salma3

67 | 14

1.36 ГБ

В этой теме нет новых непрочитанных сообщений. Приключения Чака и друзей / The Adventures of Chuck & Friends / 1-52 из 52 [семейный, 2010] DVDRip, Dub

salma3

17 | 4

7.67 ГБ

В этой теме нет новых непрочитанных сообщений. Эрнест спасает Рождество / Ernest Saves Christmas [фэнтези, комедия, семейный, 1988] WEBRip 1080p, Avo

salma3

13 | 2

9.43 ГБ

В этой теме нет новых непрочитанных сообщений. Убей своих друзей / Kill Your Friends [триллер, комедия, криминал, 2015] HDRip, Dvo

salma3

105 | 6

1.45 ГБ

В этой теме нет новых непрочитанных сообщений. Мама и папа трахают моих друзей 17 / Mom & Dad Are Fucking My Friends 17 (2015) WEBRip 720p

Dievas

16 | 3

3.64 ГБ

В этой теме нет новых непрочитанных сообщений. Сурово попала на друзей сынишки / Ariella Ferrera / My Son's Best Friends [All Sex, Oral, BigTits, Anal, DP, 2016] SiteRip

salma3

8 | 0

335.33 МБ

В этой теме нет новых непрочитанных сообщений. Рождество / This Christmas [Комедия, драма, 2007] HDRip-AVC, Mvo+Sub

salma3

13 | 2

2.79 ГБ


Начать новую тему Ответить на тему  [ 1 сообщение ] 




Для Мосгорсуда, Роскомнадзора и рекламодателей:: mosgorsud-torrent[собачка]yandex.ru