Торрент файл
скачать торрент магнет ссылка Добавлен: 23 янв 2012, 20:26
Размер: 700.27 МБ
Сидеров: 22
Личеров: 5
Автор

СообщениеДобавлено: 23 янв 2012, 20:26 

Не в сети
Супермодератор
Аватара пользователя
Дата регистрации:
11 апр 2010, 18:10
Спасибо: 5801 / 7
Сообщения: 56779
Огнедышащий / Firebreather


Перевод: Профессиональный (полное дублирование), Cубтитры: отсутствуют

Формат: HDRip, AVI, XviD, MP3

Страна: США / Cartoon Network

Режиссер: Питер Чунг

Жанр: анимация

Продолжительность: 01:09:07

Год выпуска: 2010

В ролях: Дана Дилэйни, Джесси Хэд, Данте Баско, Эми Дэвидсон, Грэй ДеЛисл, Рид Даймонд, Billy Evans, Джошуа Китон, Джеймисон Мосс, Кевин Майкл Ричардсон

Описание: Дункан хочет, чтобы он был нормальным ребенком в обычной школе. Пока он не понимает, что он что-то очень далекое от нормального.



Видео: 640x352 (1.80:1), 23.976 fps, XviD MPEG-4 Visual ~1279 kbps avg,0.237 bit/pixel

Аудио: русский 48,0 kHz, MPEG Audio Layer 3, 2 ch, ~128 [Профессиональный (полное дублирование)]

Общее
Полное имя: D:\Загрузки\ЗавершеныеЗагрузки\Огнедышащий.HDRip..avi
Формат: AVI
Формат/Информация: Audio Video Interleave
Размер файла: 700 Мбайт
Продолжительность: 1 ч. 9 м.
Общий поток: 1416 Кбит/сек
Библиотека кодирования: VirtualDub build 32507/release

Видео
Идентификатор: 0
Формат: MPEG-4 Visual
Профиль формата: Advanced Simple@L5
Параметр BVOP формата: 2
Параметр QPel формата: Нет
Параметр GMC формата: Без точки перехода
Параметр матрицы формата: Default (H.263)
Идентификатор кодека: XVID
Идентификатор кодека/Подсказка: XviD
Продолжительность: 1 ч. 9 м.
Битрейт: 1279 Кбит/сек
Ширина: 640 пикс.
Высота: 352 пикс.
Соотношение сторон: 16:9
Частота кадров: 23,976 кадр/сек
Цветовое пространство: YUV
Подвыборка цветности: 4:2:0
Битовая глубина: 8 бит
Тип развёртки: Прогрессивная
Метод сжатия: С потерями
Бит/(Пиксели*Кадры): 0.237
Размер потока: 632 Мбайт (90%)
Библиотека кодирования: XviD 63

Аудио
Идентификатор: 1
Формат: MPEG Audio
Версия формата: Version 1
Профиль формата: Layer 3
Идентификатор кодека: 55
Идентификатор кодека/Подсказка: MP3
Продолжительность: 1 ч. 9 м.
Вид битрейта: Постоянный
Битрейт: 128 Кбит/сек
Каналы: 2 канала
Частота: 48,0 КГц
Метод сжатия: С потерями
Размер потока: 63,3 Мбайт (9%)
Выравнивание: Разделение по промежуткам
Продолжительность промежутка: 42мс. (1,00 видеокадр)
Время предзагрузки промежутка: 500 ms
Библиотека кодирования: LAMEUUUЗ-ІяРiR„J 8









Поделиться:




реклама партнёра


Вернуться к началу
 Профиль Отправить личное сообщение  
 
   Похожие торренты   Автор   Торрент   Размер 
В этой теме нет новых непрочитанных сообщений. День расплаты гангстера / Da cha fan (По-Чунг Ли) [2014, Драма, комедия, криминал, HDRip] avo

Nickolas3435

106 | 5

1.45 ГБ

В этой теме нет новых непрочитанных сообщений. Огнедышащий / Breathing Fire [боевик, 1991] DVDRip, Avo

salma3

1 | 2

1.49 ГБ

В этой теме нет новых непрочитанных сообщений. Счастливый конец / Haepi-endeu / Happy End (Джи Ву Чунг / Ji Woo Chung) [1999г., мелодрама, драма, триллер, DVDRip-AVC] AVO + Sub

Alfredovich

3 | 2

1.49 ГБ

В этой теме нет новых непрочитанных сообщений. Прогулки с динозаврами / Walking with Dinosaurs [Анимация, приключения, семейный, 2013] HDRip, Dub [Лицензия]

Dracon

1892 | 29

1.37 ГБ

В этой теме нет новых непрочитанных сообщений. Вячеслав Бутусов и Ю-Питер - 10-Питер [2012, Rock, MP3]

PriZraK

0 | 1

238.48 МБ

В этой теме нет новых непрочитанных сообщений. Защитник / Concussion (Питер Ландесман) [драма, спорт, 2015] HDRip, Mvo

Dracon

384 | 52

1.37 ГБ

В этой теме нет новых непрочитанных сообщений. Halo: Падение Предела / Halo: The Fall of Reach (Йен Кирби) [Фантастика, анимация, экшен, 2015] HDRip, Mvo

Dracon

3869 | 202

1.37 ГБ


Начать новую тему Ответить на тему  [ 1 сообщение ] 




Для Мосгорсуда, Роскомнадзора и рекламодателей:: mosgorsud-torrent[собачка]yandex.ru