Торрент файл
скачать торрент магнет ссылка Добавлен: 23 янв 2012, 19:57
Размер: 1.46 ГБ
Сидеров: 159
Личеров: 18
Автор

СообщениеДобавлено: 23 янв 2012, 19:57 

Не в сети
Супермодератор
Аватара пользователя
Дата регистрации:
11 апр 2010, 18:10
Спасибо: 5801 / 7
Сообщения: 56779
Волк и семеро козлят. Сборник мультфильмов


Перевод: Не требуется
Субтитры: отсутствуют

Формат: DVDRip-AVC, MKV, H.264, AC3

Страна: СССР

Режиссер: Дмитрий Бабиченко, Александр Иванов, Валентин Караваев, Петр Носов, Михаил Каменецкий, Иван Уфимцев, Витольд Бордзиловский, Анатолий Солин

Жанр: мультфильм, короткометражка

Продолжительность: 00:07:51-00:19:18

Год выпуска: 1946-1979

Роли озвучивали: Леонид Пирогов, Клара Румянова, Мария Виноградова, Юлия Юльская, Валентина Туманова, Роза Макагонова, Анатолий Папанов, Юрий Хржановский, Георгий Вицин, Борис Владимиров, Борис Андреев, Готлиб Ронинсон, Борис Рунге, Ольга Аросева, Владимир Синявский

Описание: Серия короткометражных мультфильмов от киностудии "Союзмультфильм".

Доп. информация: Полная реставрация звука и изображения - "Крупный план", 2008 год.



Орлиное перо


Перевод: Не требуется, cубтитры: отсутствуют

Формат: DVDRip-AVC, MKV, H.264, AC3

Страна: СССР
Режиссер: Дмитрий Бабиченко
Жанр: мультфильм, короткометражка

Продолжительность: 00:07:51

Год выпуска: 1946

Описание: Мультипликационный фильм про зайца, который, надев в подражание храброму орлу его перья, смог отомстить обидевшему его медведю.



Видео: 720x576 (4:3), 25 fps, AVC (x264) High@L3.0 ~2000 kbps avg, 0.193 bit/pixel
Аудио: 48 kHz, AC3, 6 ch (Front: L C R, Side: L R, LFE), ~448 kbps avg



General
Unique ID: 212069923410157083504864302194856196247 (0x9F8B2E7C061766669EDDC4EB1EBE7897)
Format: Matroska
File size: 138 MiB
Duration: 7mn 52s
Overall bit rate: 2 451 Kbps
Movie name: Орлиное перо
Encoded date: UTC 2010-10-28 13:56:47
Writing application: mkvmerge v2.4.2 ('Oh My God') built on Jan 18 2009 17:30:28
Writing library: libebml v0.7.7 + libmatroska v0.8.1

Video
ID: 1
Format: AVC
Format/Info: Advanced Video Codec
Format profile: High@L3.0
Format settings, CABAC: Yes
Format settings, ReFrames: 8 frames
Codec ID: V_MPEG4/ISO/AVC
Duration: 7mn 52s
Bit rate: 2 000 Kbps
Width: 720 pixels
Height: 576 pixels
Display aspect ratio: 4:3
Original display aspect ratio: 5:4
Frame rate: 25.000 fps
Standard: PAL
Color space: YUV
Chroma subsampling: 4:2:0
Bit depth: 8 bits
Scan type: Progressive
Bits/(Pixel*Frame): 0.193
Stream size: 110 MiB (80%)
Title: Орлиное перо
Writing library: x264 core 56 svn-680
Encoding settings: cabac=1 / ref=5 / deblock=1:0:0 / analyse=0x3:0x133 / me=umh / subme=7 / brdo=0 / mixed_ref=0 / me_range=16 / chroma_me=1 / trellis=0 / 8x8dct=1 / cqm=0 / deadzone=21,11 / chroma_qp_offset=0 / threads=1 / nr=0 / decimate=1 / mbaff=0 / bframes=3 / b_pyramid=1 / b_adapt=1 / b_bias=0 / direct=1 / wpredb=1 / bime=0 / keyint=250 / keyint_min=25 / scenecut=40 / rc=2pass / bitrate=2000 / ratetol=1.0 / rceq='blurCplx^(1-qComp)' / qcomp=0.60 / qpmin=10 / qpmax=51 / qpstep=4 / cplxblur=20.0 / qblur=0.5 / ip_ratio=1.40 / pb_ratio=1.30

Audio
ID: 2
Format: AC-3
Format/Info: Audio Coding 3
Mode extension: CM (complete main)
Codec ID: A_AC3
Duration: 7mn 52s
Bit rate mode: Constant
Bit rate: 448 Kbps
Channel(s): 6 channels
Channel positions: Front: L C R, Side: L R, LFE
Sampling rate: 48.0 KHz
Bit depth: 16 bits
Compression mode: Lossy
Stream size: 25.2 MiB (18%)
Language: Russian












Чемпион


Перевод: Не требуется, cубтитры: отсутствуют

Формат: DVDRip-AVC, MKV, H.264, AC3

Страна: СССР
Режиссер: Александр Иванов
Жанр: мультфильм, короткометражка

Продолжительность: 00:10:06

Год выпуска: 1948

Описание: Мультипликационный фильм о том, как чемпион лыжного спорта Серый Волк самонадеянно пренебрегает тренировками. Во время очередных соревнований он уступает первенство хорошо подготовленному Бобику и даже Барсуку.
Звери восторженно приветствуют нового чемпиона – Бобика.


Видео: 720x576 (4:3), 25 fps, AVC (x264) High@L3.0 ~2000 kbps avg, 0.193 bit/pixel
Аудио: 48 kHz, AC3, 6 ch (Front: L C R, Side: L R, LFE), ~448 kbps avg





General
Unique ID: 212301994786266982201045373825586563108 (0x9FB7E07C98DE029494B770CB85740824)
Format: Matroska
File size: 177 MiB
Duration: 10mn 6s
Overall bit rate: 2 452 Kbps
Movie name: Чемпион
Encoded date: UTC 2010-10-28 17:05:22
Writing application: mkvmerge v2.4.2 ('Oh My God') built on Jan 18 2009 17:30:28
Writing library: libebml v0.7.7 + libmatroska v0.8.1

Video
ID: 1
Format: AVC
Format/Info: Advanced Video Codec
Format profile: High@L3.0
Format settings, CABAC: Yes
Format settings, ReFrames: 8 frames
Codec ID: V_MPEG4/ISO/AVC
Duration: 10mn 6s
Bit rate: 2 000 Kbps
Width: 720 pixels
Height: 576 pixels
Display aspect ratio: 4:3
Original display aspect ratio: 5:4
Frame rate: 25.000 fps
Standard: PAL
Color space: YUV
Chroma subsampling: 4:2:0
Bit depth: 8 bits
Scan type: Progressive
Bits/(Pixel*Frame): 0.193
Stream size: 141 MiB (80%)
Title: Чемпион
Writing library: x264 core 56 svn-680
Encoding settings: cabac=1 / ref=5 / deblock=1:0:0 / analyse=0x3:0x133 / me=umh / subme=7 / brdo=0 / mixed_ref=0 / me_range=16 / chroma_me=1 / trellis=0 / 8x8dct=1 / cqm=0 / deadzone=21,11 / chroma_qp_offset=0 / threads=1 / nr=0 / decimate=1 / mbaff=0 / bframes=3 / b_pyramid=1 / b_adapt=1 / b_bias=0 / direct=1 / wpredb=1 / bime=0 / keyint=250 / keyint_min=25 / scenecut=40 / rc=2pass / bitrate=2000 / ratetol=1.0 / rceq='blurCplx^(1-qComp)' / qcomp=0.60 / qpmin=10 / qpmax=51 / qpstep=4 / cplxblur=20.0 / qblur=0.5 / ip_ratio=1.40 / pb_ratio=1.30

Audio
ID: 2
Format: AC-3
Format/Info: Audio Coding 3
Mode extension: CM (complete main)
Codec ID: A_AC3
Duration: 10mn 6s
Bit rate mode: Constant
Bit rate: 448 Kbps
Channel(s): 6 channels
Channel positions: Front: L C R, Side: L R, LFE
Sampling rate: 48.0 KHz
Bit depth: 16 bits
Compression mode: Lossy
Stream size: 32.4 MiB (18%)
Language: Russian












Волк и семеро козлят


Перевод: Не требуется, cубтитры: отсутствуют

Формат: DVDRip-AVC, MKV, H.264, AC3

Страна: СССР
Режиссер: Пётр Носов
Жанр: мультфильм, короткометражка

Продолжительность: 00:10:08

Год выпуска: 1957

Описание: Экранизация известной сказки.

Видео: 720x576 (4:3), 25 fps, AVC (x264) High@L3.0 ~2000 kbps avg, 0.193 bit/pixel
Аудио: 48 kHz, AC3, 6 ch (Front: L C R, Side: L R, LFE), ~448 kbps avg





General
Unique ID: 243455065998765329762571373438720669794 (0xB727BD7BE92C7C5D8AED9623A951F862)
Format: Matroska
File size: 178 MiB
Duration: 10mn 8s
Overall bit rate: 2 452 Kbps
Movie name: Волк и семеро козлят
Encoded date: UTC 2010-10-28 19:26:45
Writing application: mkvmerge v2.4.2 ('Oh My God') built on Jan 18 2009 17:30:28
Writing library: libebml v0.7.7 + libmatroska v0.8.1

Video
ID: 1
Format: AVC
Format/Info: Advanced Video Codec
Format profile: High@L3.0
Format settings, CABAC: Yes
Format settings, ReFrames: 8 frames
Codec ID: V_MPEG4/ISO/AVC
Duration: 10mn 8s
Bit rate: 2 000 Kbps
Width: 720 pixels
Height: 576 pixels
Display aspect ratio: 4:3
Original display aspect ratio: 5:4
Frame rate: 25.000 fps
Standard: PAL
Color space: YUV
Chroma subsampling: 4:2:0
Bit depth: 8 bits
Scan type: Progressive
Bits/(Pixel*Frame): 0.193
Stream size: 142 MiB (80%)
Title: Волк и семеро козлят
Writing library: x264 core 56 svn-680
Encoding settings: cabac=1 / ref=5 / deblock=1:0:0 / analyse=0x3:0x133 / me=umh / subme=7 / brdo=0 / mixed_ref=0 / me_range=16 / chroma_me=1 / trellis=0 / 8x8dct=1 / cqm=0 / deadzone=21,11 / chroma_qp_offset=0 / threads=1 / nr=0 / decimate=1 / mbaff=0 / bframes=3 / b_pyramid=1 / b_adapt=1 / b_bias=0 / direct=1 / wpredb=1 / bime=0 / keyint=250 / keyint_min=25 / scenecut=40 / rc=2pass / bitrate=2000 / ratetol=1.0 / rceq='blurCplx^(1-qComp)' / qcomp=0.60 / qpmin=10 / qpmax=51 / qpstep=4 / cplxblur=20.0 / qblur=0.5 / ip_ratio=1.40 / pb_ratio=1.30

Audio
ID: 2
Format: AC-3
Format/Info: Audio Coding 3
Mode extension: CM (complete main)
Codec ID: A_AC3
Duration: 10mn 8s
Bit rate mode: Constant
Bit rate: 448 Kbps
Channel(s): 6 channels
Channel positions: Front: L C R, Side: L R, LFE
Sampling rate: 48.0 KHz
Bit depth: 16 bits
Compression mode: Lossy
Stream size: 32.5 MiB (18%)
Language: Russian












Чьи в лесу шишки?


Перевод: Не требуется, cубтитры: отсутствуют

Формат: DVDRip-AVC, MKV, H.264, AC3

Страна: СССР
Режиссер: Михаил Каменецкий, Иван Уфимцев
Жанр: мультфильм, короткометражка

Продолжительность: 00:10:00

Год выпуска: 1965

Описание: Жадный волчонок объявил, что всё-всё в лесу принадлежит ему. Но дружные зверушки наказали его за жадность.

Доп. информация: Цветной кукольный мультфильм.

Видео: 720x576 (4:3), 25 fps, AVC (x264) High@L3.0 ~2000 kbps avg, 0.193 bit/pixel
Аудио: 48 kHz, AC3, 6 ch (Front: L C R, Side: L R, LFE), ~448 kbps avg





General
Unique ID: 233803318320233993687539172046324464833 (0xAFE4E1955725AC21B83D8E145EF97CC1)
Format: Matroska
File size: 176 MiB
Duration: 10mn 0s
Overall bit rate: 2 452 Kbps
Movie name: Чьи в лесу шишки?
Encoded date: UTC 2010-10-28 21:42:57
Writing application: mkvmerge v2.4.2 ('Oh My God') built on Jan 18 2009 17:30:28
Writing library: libebml v0.7.7 + libmatroska v0.8.1

Video
ID: 1
Format: AVC
Format/Info: Advanced Video Codec
Format profile: High@L3.0
Format settings, CABAC: Yes
Format settings, ReFrames: 8 frames
Codec ID: V_MPEG4/ISO/AVC
Duration: 10mn 0s
Bit rate: 2 000 Kbps
Width: 720 pixels
Height: 576 pixels
Display aspect ratio: 4:3
Original display aspect ratio: 5:4
Frame rate: 25.000 fps
Standard: PAL
Color space: YUV
Chroma subsampling: 4:2:0
Bit depth: 8 bits
Scan type: Progressive
Bits/(Pixel*Frame): 0.193
Stream size: 140 MiB (80%)
Title: Чьи в лесу шишки?
Writing library: x264 core 56 svn-680
Encoding settings: cabac=1 / ref=5 / deblock=1:0:0 / analyse=0x3:0x133 / me=umh / subme=7 / brdo=0 / mixed_ref=0 / me_range=16 / chroma_me=1 / trellis=0 / 8x8dct=1 / cqm=0 / deadzone=21,11 / chroma_qp_offset=0 / threads=1 / nr=0 / decimate=1 / mbaff=0 / bframes=3 / b_pyramid=1 / b_adapt=1 / b_bias=0 / direct=1 / wpredb=1 / bime=0 / keyint=250 / keyint_min=25 / scenecut=40 / rc=2pass / bitrate=2000 / ratetol=1.0 / rceq='blurCplx^(1-qComp)' / qcomp=0.60 / qpmin=10 / qpmax=51 / qpstep=4 / cplxblur=20.0 / qblur=0.5 / ip_ratio=1.40 / pb_ratio=1.30

Audio
ID: 2
Format: AC-3
Format/Info: Audio Coding 3
Mode extension: CM (complete main)
Codec ID: A_AC3
Duration: 10mn 0s
Bit rate mode: Constant
Bit rate: 448 Kbps
Channel(s): 6 channels
Channel positions: Front: L C R, Side: L R, LFE
Sampling rate: 48.0 KHz
Bit depth: 16 bits
Compression mode: Lossy
Stream size: 32.1 MiB (18%)
Language: Russian












Лесная хроника


Перевод: Не требуется, cубтитры: отсутствуют

Формат: DVDRip-AVC, MKV, H.264, AC3

Страна: СССР
Режиссер: Пётр Носов
Жанр: мультфильм, короткометражка

Продолжительность: 00:09:40

Год выпуска: 1970

Описание: Фильм о том, как жадный волк, который отнимал у зверюшек их собственность, был наказан, попав в капкан, который он принял за ценную вещь.

Видео: 720x576 (4:3), 25 fps, AVC (x264) High@L3.0 ~2000 kbps avg, 0.193 bit/pixel
Аудио: 48 kHz, AC3, 6 ch (Front: L C R, Side: L R, LFE), ~448 kbps avg





General
Unique ID: 229790437804485779416026794445690458905 (0xACE0074C70F6F473A0C736FA61B55319)
Format: Matroska
File size: 170 MiB
Duration: 9mn 40s
Overall bit rate: 2 452 Kbps
Movie name: Лесная хроника
Encoded date: UTC 2010-10-28 23:41:53
Writing application: mkvmerge v2.4.2 ('Oh My God') built on Jan 18 2009 17:30:28
Writing library: libebml v0.7.7 + libmatroska v0.8.1

Video
ID: 1
Format: AVC
Format/Info: Advanced Video Codec
Format profile: High@L3.0
Format settings, CABAC: Yes
Format settings, ReFrames: 8 frames
Codec ID: V_MPEG4/ISO/AVC
Duration: 9mn 40s
Bit rate: 2 000 Kbps
Width: 720 pixels
Height: 576 pixels
Display aspect ratio: 4:3
Original display aspect ratio: 5:4
Frame rate: 25.000 fps
Standard: PAL
Color space: YUV
Chroma subsampling: 4:2:0
Bit depth: 8 bits
Scan type: Progressive
Bits/(Pixel*Frame): 0.193
Stream size: 135 MiB (80%)
Title: Лесная хроника
Writing library: x264 core 56 svn-680
Encoding settings: cabac=1 / ref=5 / deblock=1:0:0 / analyse=0x3:0x133 / me=umh / subme=7 / brdo=0 / mixed_ref=0 / me_range=16 / chroma_me=1 / trellis=0 / 8x8dct=1 / cqm=0 / deadzone=21,11 / chroma_qp_offset=0 / threads=1 / nr=0 / decimate=1 / mbaff=0 / bframes=3 / b_pyramid=1 / b_adapt=1 / b_bias=0 / direct=1 / wpredb=1 / bime=0 / keyint=250 / keyint_min=25 / scenecut=40 / rc=2pass / bitrate=2000 / ratetol=1.0 / rceq='blurCplx^(1-qComp)' / qcomp=0.60 / qpmin=10 / qpmax=51 / qpstep=4 / cplxblur=20.0 / qblur=0.5 / ip_ratio=1.40 / pb_ratio=1.30

Audio
ID: 2
Format: AC-3
Format/Info: Audio Coding 3
Mode extension: CM (complete main)
Codec ID: A_AC3
Duration: 9mn 40s
Bit rate mode: Constant
Bit rate: 448 Kbps
Channel(s): 6 channels
Channel positions: Front: L C R, Side: L R, LFE
Sampling rate: 48.0 KHz
Bit depth: 16 bits
Compression mode: Lossy
Stream size: 31.0 MiB (18%)
Language: Russian












Мешок яблок


Перевод: Не требуется, cубтитры: отсутствуют

Формат: DVDRip-AVC, MKV, H.264, AC3

Страна: СССР
Режиссер: Витольд Бордзиловский
Жанр: мультфильм, короткометражка

Продолжительность: 00:19:18

Год выпуска: 1974

Описание: Набрал заяц мешок яблок для своей семьи. Да пока нёс домой, всё и раздал на угощения. Но лесные друзья его выручили.

Видео: 720x576 (4:3), 25 fps, AVC (x264) High@L3.0 ~2000 kbps avg, 0.193 bit/pixel
Аудио: 48 kHz, AC3, 6 ch (Front: L C R, Side: L R, LFE), ~448 kbps avg





General
Unique ID: 247661107605445596816651418483503974173 (0xBA51CB5889E9CA3081287E248DA0C71D)
Format: Matroska
File size: 339 MiB
Duration: 19mn 18s
Overall bit rate: 2 451 Kbps
Movie name: Мешок яблок
Encoded date: UTC 2010-10-29 03:38:52
Writing application: mkvmerge v2.4.2 ('Oh My God') built on Jan 18 2009 17:30:28
Writing library: libebml v0.7.7 + libmatroska v0.8.1

Video
ID: 1
Format: AVC
Format/Info: Advanced Video Codec
Format profile: High@L3.0
Format settings, CABAC: Yes
Format settings, ReFrames: 8 frames
Codec ID: V_MPEG4/ISO/AVC
Duration: 19mn 18s
Bit rate: 2 000 Kbps
Width: 720 pixels
Height: 576 pixels
Display aspect ratio: 4:3
Original display aspect ratio: 5:4
Frame rate: 25.000 fps
Standard: PAL
Color space: YUV
Chroma subsampling: 4:2:0
Bit depth: 8 bits
Scan type: Progressive
Bits/(Pixel*Frame): 0.193
Stream size: 270 MiB (80%)
Title: Мешок яблок
Writing library: x264 core 56 svn-680
Encoding settings: cabac=1 / ref=5 / deblock=1:0:0 / analyse=0x3:0x133 / me=umh / subme=7 / brdo=0 / mixed_ref=0 / me_range=16 / chroma_me=1 / trellis=0 / 8x8dct=1 / cqm=0 / deadzone=21,11 / chroma_qp_offset=0 / threads=1 / nr=0 / decimate=1 / mbaff=0 / bframes=3 / b_pyramid=1 / b_adapt=1 / b_bias=0 / direct=1 / wpredb=1 / bime=0 / keyint=250 / keyint_min=25 / scenecut=40 / rc=2pass / bitrate=2000 / ratetol=1.0 / rceq='blurCplx^(1-qComp)' / qcomp=0.60 / qpmin=10 / qpmax=51 / qpstep=4 / cplxblur=20.0 / qblur=0.5 / ip_ratio=1.40 / pb_ratio=1.30

Audio
ID: 2
Format: AC-3
Format/Info: Audio Coding 3
Mode extension: CM (complete main)
Codec ID: A_AC3
Duration: 19mn 18s
Bit rate mode: Constant
Bit rate: 448 Kbps
Channel(s): 6 channels
Channel positions: Front: L C R, Side: L R, LFE
Sampling rate: 48.0 KHz
Bit depth: 16 bits
Compression mode: Lossy
Stream size: 61.9 MiB (18%)
Language: Russian












Зайчонок и муха


Перевод: Не требуется, cубтитры: отсутствуют

Формат: DVDRip-AVC, MKV, H.264, AC3

Страна: СССР
Режиссер: Валентин Караваев
Жанр: мультфильм, короткометражка

Продолжительность: 00:09:41

Год выпуска: 1977

Описание: Злая муха утащила из дома капризного зайчонка.

Видео: 720x576 (4:3), 25 fps, AVC (x264) High@L3.0 ~2000 kbps avg, 0.193 bit/pixel
Аудио: 48 kHz, AC3, 6 ch (Front: L C R, Side: L R, LFE), ~448 kbps avg





General
Unique ID: 253418649988031860390606469602442436581 (0xBEA6A81A1235838380E07322E77F5FE5)
Format: Matroska
File size: 170 MiB
Duration: 9mn 41s
Overall bit rate: 2 451 Kbps
Movie name: Зайчонок и муха
Encoded date: UTC 2010-10-29 05:58:59
Writing application: mkvmerge v2.4.2 ('Oh My God') built on Jan 18 2009 17:30:28
Writing library: libebml v0.7.7 + libmatroska v0.8.1

Video
ID: 1
Format: AVC
Format/Info: Advanced Video Codec
Format profile: High@L3.0
Format settings, CABAC: Yes
Format settings, ReFrames: 8 frames
Codec ID: V_MPEG4/ISO/AVC
Duration: 9mn 41s
Bit rate: 2 000 Kbps
Width: 720 pixels
Height: 576 pixels
Display aspect ratio: 4:3
Original display aspect ratio: 5:4
Frame rate: 25.000 fps
Standard: PAL
Color space: YUV
Chroma subsampling: 4:2:0
Bit depth: 8 bits
Scan type: Progressive
Bits/(Pixel*Frame): 0.193
Stream size: 135 MiB (80%)
Title: Зайчонок и муха
Writing library: x264 core 56 svn-680
Encoding settings: cabac=1 / ref=5 / deblock=1:0:0 / analyse=0x3:0x133 / me=umh / subme=7 / brdo=0 / mixed_ref=0 / me_range=16 / chroma_me=1 / trellis=0 / 8x8dct=1 / cqm=0 / deadzone=21,11 / chroma_qp_offset=0 / threads=1 / nr=0 / decimate=1 / mbaff=0 / bframes=3 / b_pyramid=1 / b_adapt=1 / b_bias=0 / direct=1 / wpredb=1 / bime=0 / keyint=250 / keyint_min=25 / scenecut=40 / rc=2pass / bitrate=2000 / ratetol=1.0 / rceq='blurCplx^(1-qComp)' / qcomp=0.60 / qpmin=10 / qpmax=51 / qpstep=4 / cplxblur=20.0 / qblur=0.5 / ip_ratio=1.40 / pb_ratio=1.30

Audio
ID: 2
Format: AC-3
Format/Info: Audio Coding 3
Mode extension: CM (complete main)
Codec ID: A_AC3
Duration: 9mn 41s
Bit rate mode: Constant
Bit rate: 448 Kbps
Channel(s): 6 channels
Channel positions: Front: L C R, Side: L R, LFE
Sampling rate: 48.0 KHz
Bit depth: 16 bits
Compression mode: Lossy
Stream size: 31.0 MiB (18%)
Language: Russian












Как лиса зайца догоняла


Перевод: Не требуется, cубтитры: отсутствуют

Формат: DVDRip-AVC, MKV, H.264, AC3

Страна: СССР
Режиссер: Анатолий Солин
Жанр: мультфильм, короткометражка

Продолжительность: 00:08:34

Год выпуска: 1979

Описание: О хитрой лисе и добром, но простодушном Зайчике, которого Лиса решила съесть.

Видео: 720x576 (4:3), 25 fps, AVC (x264) High@L3.0 ~2000 kbps avg, 0.193 bit/pixel
Аудио: 48 kHz, AC3, 6 ch (Front: L C R, Side: L R, LFE), ~448 kbps avg





General
Unique ID: 249578570166831317731780786298262146023 (0xBBC3158C91B453EE9531279697144BE7)
Format: Matroska
File size: 150 MiB
Duration: 8mn 34s
Overall bit rate: 2 452 Kbps
Movie name: Как лиса зайца догоняла
Encoded date: UTC 2010-10-29 07:40:28
Writing application: mkvmerge v2.4.2 ('Oh My God') built on Jan 18 2009 17:30:28
Writing library: libebml v0.7.7 + libmatroska v0.8.1

Video
ID: 1
Format: AVC
Format/Info: Advanced Video Codec
Format profile: High@L3.0
Format settings, CABAC: Yes
Format settings, ReFrames: 8 frames
Codec ID: V_MPEG4/ISO/AVC
Duration: 8mn 34s
Bit rate: 2 000 Kbps
Width: 720 pixels
Height: 576 pixels
Display aspect ratio: 4:3
Original display aspect ratio: 5:4
Frame rate: 25.000 fps
Standard: PAL
Color space: YUV
Chroma subsampling: 4:2:0
Bit depth: 8 bits
Scan type: Progressive
Bits/(Pixel*Frame): 0.193
Stream size: 120 MiB (80%)
Title: Как лиса зайца догоняла
Writing library: x264 core 56 svn-680
Encoding settings: cabac=1 / ref=5 / deblock=1:0:0 / analyse=0x3:0x133 / me=umh / subme=7 / brdo=0 / mixed_ref=0 / me_range=16 / chroma_me=1 / trellis=0 / 8x8dct=1 / cqm=0 / deadzone=21,11 / chroma_qp_offset=0 / threads=1 / nr=0 / decimate=1 / mbaff=0 / bframes=3 / b_pyramid=1 / b_adapt=1 / b_bias=0 / direct=1 / wpredb=1 / bime=0 / keyint=250 / keyint_min=25 / scenecut=40 / rc=2pass / bitrate=2000 / ratetol=1.0 / rceq='blurCplx^(1-qComp)' / qcomp=0.60 / qpmin=10 / qpmax=51 / qpstep=4 / cplxblur=20.0 / qblur=0.5 / ip_ratio=1.40 / pb_ratio=1.30

Audio
ID: 2
Format: AC-3
Format/Info: Audio Coding 3
Mode extension: CM (complete main)
Codec ID: A_AC3
Duration: 8mn 34s
Bit rate mode: Constant
Bit rate: 448 Kbps
Channel(s): 6 channels
Channel positions: Front: L C R, Side: L R, LFE
Sampling rate: 48.0 KHz
Bit depth: 16 bits
Compression mode: Lossy
Stream size: 27.5 MiB (18%)
Language: Russian










Поделиться:




реклама партнёра


Вернуться к началу
 Профиль Отправить личное сообщение  
 
   Похожие торренты   Автор   Торрент   Размер 
В этой теме нет новых непрочитанных сообщений. Советские мультфильмы - сборник (Александр Иванов, Витольд Бордзиловский, Геннадий Сокольский...) [мультфильмы, 1930-1980] DVDRip

Dracon

64 | 62

144.69 ГБ

В этой теме нет новых непрочитанных сообщений. Трое из Простоквашино. Сборник мультфильмов (Владимир Попов) [1978, мультфильм, семейный, BDRip, 1080p] / Мультфильмы (HD/BD Video)

marya111

11 | 1

2.62 ГБ

В этой теме нет новых непрочитанных сообщений. С Новым годом! Сборник мультфильмов (Мстислав Пащенко, Владимир Дегтярёв, Леонид Амальрик, Борис Дежкин) [1950-1969, Приключения, DVDRip]

Nickolas3435

269 | 11

1.36 ГБ

В этой теме нет новых непрочитанных сообщений. Иван Царевич и Серый Волк 2 [Мультфильм, семейный, 2013] DVDRip

Dracon

60 | 2

698.37 МБ

В этой теме нет новых непрочитанных сообщений. Иван Царевич и Серый Волк 2 [Мультфильм, семейный, 2013] DVDRip

Dracon

2703 | 78

1.37 ГБ

В этой теме нет новых непрочитанных сообщений. Александр Иванов - Это был я [2011, Rock, MP3]

PriZraK

1 | 3

152.07 МБ

В этой теме нет новых непрочитанных сообщений. Александр Иванов - Лучшее [2011, Rock, MP3]

PriZraK

10 | 5

361.48 МБ


Начать новую тему Ответить на тему  [ 1 сообщение ] 




Для Мосгорсуда, Роскомнадзора и рекламодателей:: mosgorsud-torrent[собачка]yandex.ru