Торрент файл
скачать торрент магнет ссылка Добавлен: 23 янв 2012, 19:55
Размер: 584.58 МБ
Сидеров: 9
Личеров: 6
Автор

СообщениеДобавлено: 23 янв 2012, 19:55 

Не в сети
Супермодератор
Аватара пользователя
Дата регистрации:
11 апр 2010, 18:10
Спасибо: 5799 / 7
Сообщения: 56779
Волшебный ковер

Перевод: Не требуется, cубтитры: отсутствуют
Формат: TVRip, AVI, DivX, MP3
Страна: СССР
Режиссер: Лев Атаманов
Жанр: мультфильм, короткометражка, приключения
Продолжительность: 00:34:20
Год выпуска: 1948
Описание:
Сказка на восточные мотивы о борьбе со злым волшебником.




Видео: 720x576 (1.25:1), 25 fps, DivX Codec 5.x or 6.x ~2174 kbps avg, 0.21 bit/pixel
Аудио: 48 kHz, MPEG Layer 3, 2 ch, ~192.00 kbps avg


Общее
Полное имя: F:\new_torrent\Волшебный ковер.avi
Формат: AVI
Формат/Информация: Audio Video Interleave
Размер файла: 585 Мбайт
Продолжительность: 34 м.
Общий поток: 2380 Кбит/сек
Программа кодирования: MEncoder SVN-r30881(20100311-gcc4.3.3)
Библиотека кодирования: MPlayer

Видео
Идентификатор: 0
Формат: MPEG-4 Visual
Профиль формата: Simple@L1
Параметр BVOP формата: Нет
Параметр QPel формата: Нет
Параметр GMC формата: Без точки перехода
Параметр матрицы формата: Default (H.263)
Идентификатор кодека: DX50
Идентификатор кодека/Подсказка: DivX 5
Продолжительность: 34 м.
Битрейт: 2175 Кбит/сек
Ширина: 720 пикс.
Высота: 576 пикс.
Соотношение сторон: 5:4
Частота кадров: 25,000 кадр/сек
Стандарт вещания: PAL
Цветовое пространство: YUV
Подвыборка цветности: 4:2:0
Битовая глубина: 8 бит
Тип развёртки: Прогрессивная
Метод сжатия: С потерями
Бит/(Пиксели*Кадры): 0.210
Размер потока: 534 Мбайт (91%)
Библиотека кодирования: Lavc52.58.0

Аудио
Идентификатор: 1
Формат: MPEG Audio
Версия формата: Version 1
Профиль формата: Layer 3
Режим: Joint stereo
Расширение режима: MS Stereo
Идентификатор кодека: 55
Идентификатор кодека/Подсказка: MP3
Продолжительность: 34 м.
Вид битрейта: Постоянный
Битрейт: 192 Кбит/сек
Канал(ы): 2 канала(ов)
Частота: 48,0 КГц
Метод сжатия: С потерями
Размер потока: 47,2 Мбайт (8%)
Выравнивание: Соединение по промежуткам
Продолжительность промежутка: 24мс. (0,60 видеокадр)
Время предзагрузки промежутка: 504 ms

[/field]







Поделиться:




реклама партнёра


Вернуться к началу
 Профиль Отправить личное сообщение  
 
   Похожие торренты   Автор   Торрент   Размер 
В этой теме нет новых непрочитанных сообщений. Феникс и волшебный ковер / The Phoenix and the Magic Carpet [фэнтези, приключения, семейный, 1995] DVDRip, Mvo

salma3

53 | 9

1.46 ГБ

В этой теме нет новых непрочитанных сообщений. Волшебный Пудинг / The Magic Pudding [мультфильм, семейный, приключения, 2000] DVDRip, Mvo

salma3

6 | 1

1.45 ГБ

В этой теме нет новых непрочитанных сообщений. Волшебный футбол / Metegol [мультфильм, приключения, семейный, спорт, 2013] HDRip [AlexFilm]

Dracon

11 | 3

1.37 ГБ

В этой теме нет новых непрочитанных сообщений. Волшебный футбол / Metegol [мультфильм, приключения, семейный, спорт, 2013] BDRip 720p, Mvo+Sub [AlexFilm]

Dracon

15 | 2

6.67 ГБ

В этой теме нет новых непрочитанных сообщений. Волшебный футбол / Metegol [мультфильм, приключения, семейный, спорт, 2013] BDRip 1080p, Mvo+Sub [AlexFilm]

Dracon

29 | 5

10.82 ГБ

В этой теме нет новых непрочитанных сообщений. Большая игра / Волшебный футбол / Настольный футбол / Metegol [мультфильм, приключения, семейный, спорт, 2013] BDRip 1080p, Mvo+Sub [AlexFilm | 3D-Video]

Dracon

113 | 25

6.86 ГБ

В этой теме нет новых непрочитанных сообщений. Птица Феникс и ковер-самолет / The Phoenix and the Carpet [фэнтези, приключения, семейный, 1997] DVDRip, Mvo

salma3

32 | 3

1.46 ГБ


Начать новую тему Ответить на тему  [ 1 сообщение ] 




Для Мосгорсуда, Роскомнадзора и рекламодателей:: mosgorsud-torrent[собачка]yandex.ru