Торрент файл
скачать торрент магнет ссылка Добавлен: 23 янв 2012, 19:54
Размер: 85.5 МБ
Сидеров: 12
Личеров: 8
Автор

СообщениеДобавлено: 23 янв 2012, 19:54 

Не в сети
Супермодератор
Аватара пользователя
Дата регистрации:
11 апр 2010, 18:10
Спасибо: 5962 / 7
Сообщения: 56765
Сказка про чужие краски

Перевод: Не требуется, cубтитры: отсутствуют
Формат: DVDRip, AVI, DivX, MP3
Страна: CCCP
Режиссер: Лев Атаманов
Жанр: мультфильм
Продолжительность: 00:09:35
Год выпуска: 1962

Описание:
Сказка про человечков-осенников, раскрашивающих листья в цвета осени, и про мальчишку по прозвищу Кузьма-Ни капли-ума, который украл эти краски.




Видео: 512x384 (1.33:1), 25 fps, DivX ;-) MPEG-4 Low-Motion ~1174 kbps avg, 0.24 bit/pixel
Аудио: 44.100 kHz, MPEG Layer 3, 1 ch, ~63.70 kbps avg


Общее
Полное имя: F:\new_torrent\Сказка про чужие краски.avi
Формат: AVI
Формат/Информация: Audio Video Interleave
Размер файла: 85,5 Мбайт
Продолжительность: 9 м. 34 с.
Общий поток: 1248 Кбит/сек
Название фильма: Сказка про чужие краски
Тема: Сказка про чужие краски
Программа кодирования: Nandub v1.0rc2
Библиотека кодирования: Nandub build 1853/release
Правообладатель: LarSen Ltd

Видео
Идентификатор: 0
Формат: MPEG-4 Visual
Идентификатор кодека: DIV3
Идентификатор кодека/Подсказка: DivX 3 Low
Продолжительность: 9 м. 34 с.
Битрейт: 1174 Кбит/сек
Ширина: 512 пикс.
Высота: 384 пикс.
Соотношение сторон: 4:3
Частота кадров: 25,000 кадр/сек
Цветовое пространство: YUV
Подвыборка цветности: 4:2:0
Битовая глубина: 8 бит
Метод сжатия: С потерями
Бит/(Пиксели*Кадры): 0.239
Размер потока: 80,5 Мбайт (94%)

Аудио
Идентификатор: 1
Формат: MPEG Audio
Версия формата: Version 1
Профиль формата: Layer 3
Идентификатор кодека: 55
Идентификатор кодека/Подсказка: MP3
Продолжительность: 9 м. 34 с.
Вид битрейта: Постоянный
Битрейт: 64,0 Кбит/сек
Канал(ы): 1 канал
Частота: 44,1 КГц
Метод сжатия: С потерями
Размер потока: 4,36 Мбайт (5%)
Выравнивание: Разделение по промежуткам
Продолжительность промежутка: 40мс. (1,00 видеокадр)
Время предзагрузки промежутка: 442 ms
[/field]






Поделиться:




реклама партнёра


Вернуться к началу
 Профиль Отправить личное сообщение  
 
   Похожие торренты   Автор   Торрент   Размер 
В этой теме нет новых непрочитанных сообщений. Веселый Париж / Gay Purr-ee [мультфильм, мюзикл, комедия, семейный, 1962] WEB-DLRip, Mvo

salma3

46 | 7

1.37 ГБ

В этой теме нет новых непрочитанных сообщений. Чужие против ниндзя / Alien vs. Ninja [ужасы, боевик, фантастика, комедия, 2010] DVDRip, Mvo

salma3

4 | 2

1.37 ГБ

В этой теме нет новых непрочитанных сообщений. Деловые люди [комедия, драма, 1962] DVDRip-AVC

salma3

47 | 12

1.46 ГБ

В этой теме нет новых непрочитанных сообщений. Деловые люди [комедия, драма, 1962] DVDRip-AVC

salma3

27 | 15

715.27 МБ

В этой теме нет новых непрочитанных сообщений. Дама с камелиями / La bella Lola [Драма, 1962] DVDRip-AVC, Mvo

salma3

47 | 5

2.09 ГБ

В этой теме нет новых непрочитанных сообщений. Королева Шантеклера / La Reina Del Chantecler [Драма, мелодрама, 1962] DVDRip-AVC, Dub

salma3

41 | 6

2.35 ГБ

В этой теме нет новых непрочитанных сообщений. Чужие и близкие (1-4 серии из 4) [мелодрама, 2016] SATRip

salma3

857 | 168

2.47 ГБ


Начать новую тему Ответить на тему  [ 1 сообщение ] 




Для Мосгорсуда, Роскомнадзора и рекламодателей:: mosgorsud-torrent[собачка]yandex.ru