Торрент файл
скачать торрент магнет ссылка Добавлен: 23 янв 2012, 19:54
Размер: 77.49 МБ
Сидеров: 3
Личеров: 4
Автор

СообщениеДобавлено: 23 янв 2012, 19:54 

Не в сети
Супермодератор
Аватара пользователя
Дата регистрации:
11 апр 2010, 18:10
Спасибо: 5801 / 7
Сообщения: 56779
Домашний романс

Перевод: Не требуется, cубтитры: отсутствуют
Формат: TVRip, AVI, DivX, MP3
Страна: Россия
Режиссер: Ирина Литманович
Жанр: мультфильм
Продолжительность: 00:13:52
Год выпуска: 2010
Описание:
Лирический фильм-воспоминание, изображающий один день из жизни семьи. Герои - мама, папа и девочка - занимаются привычными делами и по ходу вспоминают недавнее свое прошлое (1980-е годы). Несмотря на недопонимания и разногласия между ее участниками, семья в фильме предстает как произведение искусства, гармонично в одном аккорде сочетающее разные индивидуальности.


Видео: 600x480 (1.25:1), 25 fps, DivX Codec 5.x or 6.x ~543 kbps avg, 0.07 bit/pixel
Аудио: 48 kHz, MPEG Layer 3, 2 ch, ~224.00 kbps avg


Общее
Полное имя: F:\new_torrent\Домашний романс.avi
Формат: AVI
Формат/Информация: Audio Video Interleave
Размер файла: 77,5 Мбайт
Продолжительность: 13 м.
Общий поток: 781 Кбит/сек
Название фильма: 'Домашний романс'.webm
Режиссёр: created.with.SUPER(C).v2011.bld.49
Программа кодирования: SUPER(C)

Видео
Идентификатор: 0
Формат: MPEG-4 Visual
Профиль формата: Advanced Simple@L5
Параметр BVOP формата: Нет
Параметр QPel формата: Нет
Параметр GMC формата: Без точки перехода
Параметр матрицы формата: Default (H.263)
Идентификатор кодека: DX50
Идентификатор кодека/Подсказка: DivX 5
Продолжительность: 13 м.
Битрейт: 544 Кбит/сек
Ширина: 600 пикс.
Высота: 480 пикс.
Соотношение сторон: 3:2
Частота кадров: 25,000 кадр/сек
Цветовое пространство: YUV
Подвыборка цветности: 4:2:0
Битовая глубина: 8 бит
Тип развёртки: Прогрессивная
Метод сжатия: С потерями
Бит/(Пиксели*Кадры): 0.076
Размер потока: 54,0 Мбайт (70%)
Библиотека кодирования: SUPER(C)

Аудио
Идентификатор: 1
Формат: MPEG Audio
Версия формата: Version 1
Профиль формата: Layer 3
Режим: Joint stereo
Расширение режима: MS Stereo
Идентификатор кодека: 55
Идентификатор кодека/Подсказка: MP3
Продолжительность: 13 м.
Вид битрейта: Постоянный
Битрейт: 224 Кбит/сек
Канал(ы): 2 канала(ов)
Частота: 48,0 КГц
Метод сжатия: С потерями
Размер потока: 22,2 Мбайт (29%)
Выравнивание: Соединение по промежуткам
Продолжительность промежутка: 24мс. (0,60 видеокадр)
Библиотека кодирования: LAME
[/field]







Поделиться:




реклама партнёра


Вернуться к началу
 Профиль Отправить личное сообщение  
 
   Похожие торренты   Автор   Торрент   Размер 
В этой теме нет новых непрочитанных сообщений. Романс для корнета / Romance pro kridlovku [Драма, 1966] DVDRip, Avo

salma3

13 | 14

1.37 ГБ

В этой теме нет новых непрочитанных сообщений. Домашний анал (2015) HD 720p

Dile-1

12 | 2

139.86 МБ

В этой теме нет новых непрочитанных сообщений. Домашний анал (2015) CamRip

Dile-1

98 | 7

31.83 МБ

В этой теме нет новых непрочитанных сообщений. Домашний покер от Академии покера

Pokerfan

0 | 3

517.55 МБ

В этой теме нет новых непрочитанных сообщений. Домашний секс [2014 г., Amateur, CamRip]

Dievas

2 | 2

44.53 МБ

В этой теме нет новых непрочитанных сообщений. На домашний фотик [2014 г., Amateur, CamRip]

Dievas

15 | 3

122.05 МБ

В этой теме нет новых непрочитанных сообщений. Страстный домашний секс [2014 г., Amateur, CamRip]

Dievas

7 | 3

26.19 МБ


Начать новую тему Ответить на тему  [ 1 сообщение ] 




Для Мосгорсуда, Роскомнадзора и рекламодателей:: mosgorsud-torrent[собачка]yandex.ru