Торрент файл
скачать торрент магнет ссылка Добавлен: 23 янв 2012, 19:47
Размер: 1.48 ГБ
Сидеров: 130
Личеров: 8
Автор

СообщениеДобавлено: 23 янв 2012, 19:47 

Не в сети
Супермодератор
Аватара пользователя
Дата регистрации:
11 апр 2010, 18:10
Спасибо: 5801 / 7
Сообщения: 56779
Снежная королева(крупный план, реставрация)

Перевод: Не требуется, cубтитры: отсутствуют
Формат: DVDRip, MKV, H.264, AC3
Страна: СССР
Режиссер: Лев Атаманов
Жанр: драма, семейный
Продолжительность: 01:00:00
Год выпуска: 1957
Описание: В один из морозных зимних вечеров, когда сквозь расписанные причудливым узором окна уютных, теплых домов прокрадывается темнота, а во дворе тревожно завывает вьюга, Снежная королева умчала маленького Кая в свои ледяные владения и превратила его доброе отзывчивое сердце в осколок льдинки. Через множество испытаний пришлось пройти верной Герде, чтобы добраться до чертогов Снежной королевы и спасти мальчика, освободить его из ледового плена, где царят душевный холод и безразличие.
Знакомый с детства сюжет самой волшебной сказки Г. Х. Андерсена "Снежная королева" был пересказан в 1957 году замечательным советским режиссером Львом Атамановым языком анимации. "Снежная королева" — одно из самых значительных явлений российской и мировой мультипликации — вот уже около полувека остается любимым кинематографическим произведением зрителей. Каждое новое поколение детей будет открывать для себя неповторимое очарование этого фильма, знакомство с которым — всегда праздник.




Автор рипа: Deep Fusion

Видео: 720x480 (3:2), 25,000 fps, AVC High@L5.1, ~3056 kbps avg, 0.354 bit/pixel
Аудио: 48 kHz, Dolby AC3, 6 ch, ~448 kbps avg

Формат: Matroska
Версия формата: Version 1
Размер файла: 1,48 Гбайт
Продолжительность: 1 ч. 0 м.
Общий поток: 3508 Кбит/сек
Дата кодирования: UTC 2011-11-06 20:34:50
Программа кодирования: mkvmerge v2.2.0 ('Turn It On Again') built on Mar4 2008 13:20:25
Библиотека кодирования: libebml v0.7.7 + libmatroska v0.8.1

Видео
Идентификатор: 1
Формат: AVC
Формат/Информация: Advanced Video Codec
Профиль формата: High@L5.1
Параметр CABAC формата: Да
Параметр ReFrames формата: 6 кадров
Параметры GOP формата: M=6, N=11
Идентификатор кодека: V_MPEG4/ISO/AVC
Продолжительность: 1 ч. 0 м.
Битрейт: 3056 Кбит/сек
Ширина: 720 пикс.
Высота: 480 пикс.
Соотношение сторон: 3:2
Частота кадров: 25,000 кадр/сек
Стандарт вещания: NTSC
Цветовое пространство: YUV
Подвыборка цветности: 4:2:0
Битовая глубина: 8 бит
Тип развёртки: Прогрессивная
Бит/(Пиксели*Кадры): 0.354
Размер потока: 1,27 Гбайт (85%)
Библиотека кодирования: x264 core 116 r2074 2641b9e
Настройки программы: cabac=1 / ref=6 / deblock=1:1:1 / analyse=0x3:0x113 / me=hex / subme=7 / psy=1 / psy_rd=0.40:0.00 / mixed_ref=1 / me_range=16 / chroma_me=1 / trellis=1 / 8x8dct=1 / cqm=0 / deadzone=21,11 / fast_pskip=1 / chroma_qp_offset=-2 / threads=3 / sliced_threads=0 / nr=0 / decimate=1 / interlaced=0 / bluray_compat=0 / constrained_intra=0 / bframes=5 / b_pyramid=2 / b_adapt=1 / b_bias=0 / direct=1 / weightb=1 / open_gop=0 / weightp=2 / keyint=250 / keyint_min=25 / scenecut=40 / intra_refresh=0 / rc_lookahead=40 / rc=2pass / mbtree=1 / bitrate=3056 / ratetol=1.0 / qcomp=0.60 / qpmin=0 / qpmax=69 / qpstep=4 / cplxblur=20.0 / qblur=0.5 / ip_ratio=1.40 / aq=1:0.60
Язык: English

Аудио
Идентификатор: 2
Формат: AC-3
Формат/Информация: Audio Coding 3
Расширение режима: CM (complete main)
Идентификатор кодека: A_AC3
Продолжительность: 1 ч. 0 м.
Вид битрейта: Постоянный
Битрейт: 448 Кбит/сек
Каналы: 6 каналов
Расположение каналов: Front: L C R, Side: L R, LFE
Частота: 48,0 КГц
Битовая глубина: 16 бит
Метод сжатия: С потерями
Размер потока: 194 Мбайт (13%)

















Поделиться:




реклама партнёра


Вернуться к началу
 Профиль Отправить личное сообщение  
 
   Похожие торренты   Автор   Торрент   Размер 
В этой теме нет новых непрочитанных сообщений. Снежная королева 2: Перезаморозка (Алексей Цицилин) [мультфильм, фэнтези, приключения, семейный, 2014] WEB-DLRip

Dracon

25 | 3

1.37 ГБ

В этой теме нет новых непрочитанных сообщений. Снежная королева 2: Перезаморозка (Алексей Цицилин) [мультфильм, фэнтези, приключения, семейный, 2014] WEBRip

Dracon

2713 | 99

1.37 ГБ

В этой теме нет новых непрочитанных сообщений. Снежная королева 2: Перезаморозка (Алексей Цицилин) [мультфильм, фэнтези, приключения, семейный, 2014] WEB-DLRip 1080p

Dracon

27 | 4

2.58 ГБ

В этой теме нет новых непрочитанных сообщений. Снежная королева 2: Перезаморозка (Алексей Цицилин) [мультфильм, фэнтези, приключения, семейный, 2014] WEBRip 720p

Dracon

595 | 8

2.25 ГБ

В этой теме нет новых непрочитанных сообщений. Снежная королева 2: Перезаморозка (Алексей Цицилин) [мультфильм, фэнтези, приключения, семейный, 2014] WEB-DLRip 720p

Dracon

10 | 2

2.49 ГБ

В этой теме нет новых непрочитанных сообщений. Снежная королева / Ice Queen [Ужасы, Комедия, 2005] DVDRip, Avo

salma3

1 | 2

1.36 ГБ

В этой теме нет новых непрочитанных сообщений. Венди Ву: Королева в бою / Wendy Wu: Homecoming Warrior [Приключения, семейный, 2006] DVDRip, Mvo

salma3

0 | 3

1.37 ГБ


Начать новую тему Ответить на тему  [ 1 сообщение ] 




Для Мосгорсуда, Роскомнадзора и рекламодателей:: mosgorsud-torrent[собачка]yandex.ru