Торрент файл
скачать торрент магнет ссылка Добавлен: 23 янв 2012, 19:44
Размер: 1.58 ГБ
Сидеров: 48
Личеров: 6
Автор

СообщениеДобавлено: 23 янв 2012, 19:44 

Не в сети
Супермодератор
Аватара пользователя
Дата регистрации:
11 апр 2010, 18:10
Спасибо: 5799 / 7
Сообщения: 56779
Мульт-Салют. Часть 2

Перевод: Не требуется, cубтитры: отсутствуют

Формат: DVDRip-AVC, MKV, H.264, AC3

Страна: СССР

Жанр: детский, семейный

Продолжительность: 01:43:21

Год выпуска: 1948-1981

Описание: Великолепная подборка рисованных мультфильмов в отличном качестве.

Видео: 720x544 (1.32:1), 25 fps, AVC(х264), High@L4.1, ~ 2000 Kbps, 0.20 bit/pixel
Аудио: 48.0 kHz, AC3, (Front: L R), 2 ch ~192 Kbps avg

Релиз-Группа: Автор:


Режиссер: Владимир Полковников
Продолжительность: 00:16:30
Год выпуска: 1963
В ролях: Сергей Цейц, Юрий Филимонов, Нина Никитина, Алексей Грибов
Описание: По сказке К. Чуковского о страшном-престрашном Тараканище, который до смерти напугал всех зверей, но был проглочен обыкновенным маленьким воробышком.

Режиссер: Борис Степанцев
Продолжительность: 00:09:23
Год выпуска: 1976
В ролях: В. Корецкий
Описание: Экранизация одноименной сказки К. Чуковского о том, как Муха-Цокотуха купила самовар и праздновала свои именины. Паук похищает муху. В бой с пауком вступает комар, освобождает муху и женится на ней.

Режиссер: Вячеслав Котеночкин
Продолжительность: 00:09:25
Год выпуска: 1981
В ролях: Клара Румянова, Мария Виноградова, Людмила Гнилова, Рогволд Суховерко
Описание: Как бобер, белочка, мышонок и барсук «спасали» зайку от медведя.

Режиссер: Юрий Прытков
Продолжительность: 00:09:27
Год выпуска: 1970
В ролях: Алексей Грибов, Зинаида Нарышкина, Вячеслав Невинный, Борис Новиков, Клара Румянова
Описание: Медведь пытается сделать запасы на зиму: собрать морковь, грибы, орехи, наловить рыбы, украсть курочку. Но во всём терпит неудачу.

Режиссер: Ольга Ходатаева, Леонид Аристов
Продолжительность: 00:10:11
Год выпуска: 1954
В ролях: Б.Токарев, И.Маликова, А.Котов, Т.Канаев
Описание: Экранизация украинской народной сказки «Соломенный бычок — смоляной бочок».

Режиссер: Леонид Амальрик, Владимир Полковников
Продолжительность: 00:19:24
Год выпуска: 1948
В ролях: Федор Курихин, В. Иванова, Валентина Телегина, Владимир Попов
Описание: По мотивам рассказа Д. Н. Мамина-Сибиряка.

Режиссер: Витольд Бордзиловский
Продолжительность: 00:19:20
Год выпуска: 1974
В ролях: Георгий Вицин, Анатолий Папанов, Борис Владимиров, Борис Андреев, Готлиб Ронинсон, Борис Рунге
Описание: Набрал заяц мешок яблок для своей семьи. Да пока нёс домой, всё и раздал на угощения. Но лесные друзья его выручили.

Режиссер: Петр Носов
Продолжительность: 00:09:39
Год выпуска: 1970
В ролях: Юрий Хржановский, Анатолий Папанов, Клара Румянова, Юлия Юльская
Описание: Фильм о том, как жадный волк, который отнимал у зверюшек их собственность, был наказан, попав в капкан, который он принял за ценную вещь.


Особая благодарность -good boy- за релиз:



Общее
Полное имя: mult_salut_2_[tfile.ru]\Тараканище.mkv
Формат: Matroska
Размер файла: 259 Мбайт
Продолжительность: 16 м.
Общий поток: 2195 Кбит/сек
Дата кодирования: UTC 2011-11-24 10:51:36
Программа кодирования: mkvmerge v3.3.0 ('Language') built on Mar 24 2010 14:59:24
Библиотека кодирования: libebml v0.8.0 + libmatroska v0.9.0

Видео
Идентификатор: 1
Формат: AVC
Формат/Информация: Advanced Video Codec
Профиль формата: High@L3.1
Параметр CABAC формата: Да
Параметр ReFrames формата: 8 кадры
Идентификатор кодека: V_MPEG4/ISO/AVC
Продолжительность: 16 м.
Битрейт: 2000 Кбит/сек
Ширина: 720 пикс.
Высота: 544 пикс.
Соотношение сторон: 4:3
Частота кадров: 25,000 кадр/сек
Цветовое пространство: YUV
Подвыборка цветности: 4:2:0
Битовая глубина: 8 бит
Тип развёртки: Прогрессивная
Бит/(Пиксели*Кадры): 0.204
Размер потока: 231 Мбайт (89%)
Библиотека кодирования: x264 core 92 r1510 33d382a
Настройки программы: cabac=1 / ref=8 / deblock=1:-1:-1 / analyse=0x3:0x133 / me=umh / subme=7 / psy=1 / psy_rd=1.00:0.10 / mixed_ref=1 / me_range=16 / chroma_me=1 / trellis=2 / 8x8dct=1 / cqm=0 / deadzone=21,11 / fast_pskip=0 / chroma_qp_offset=-3 / threads=3 / sliced_threads=0 / nr=0 / decimate=1 / interlaced=0 / constrained_intra=0 / bframes=3 / b_pyramid=2 / b_adapt=2 / b_bias=0 / direct=3 / wpredb=1 / wpredp=2 / keyint=250 / keyint_min=25 / scenecut=40 / intra_refresh=0 / rc_lookahead=50 / rc=2pass / mbtree=1 / bitrate=2000 / ratetol=1.0 / qcomp=0.60 / qpmin=10 / qpmax=51 / qpstep=4 / cplxblur=20.0 / qblur=0.5 / ip_ratio=1.40 / aq=1:1.00

Аудио
Идентификатор: 2
Формат: AC-3
Формат/Информация: Audio Coding 3
Расширение режима: CM (complete main)
Идентификатор кодека: A_AC3
Продолжительность: 16 м.
Вид битрейта: Постоянный
Битрейт: 192 Кбит/сек
Канал(ы): 2 канала(ов)
Расположение каналов: Front: L R
Частота: 48,0 КГц
Битовая глубина: 16 бит
Метод сжатия: С потерями
Размер потока: 22,7 Мбайт (9%)










Поделиться:




реклама партнёра


Вернуться к началу
 Профиль Отправить личное сообщение  
 
   Похожие торренты   Автор   Торрент   Размер 
В этой теме нет новых непрочитанных сообщений. Мульт утро [01х01-09] (Россия HD) [Мультсериал, компьютерная анимация, сказка, детский, семейный, 2015] HDTVRip

Dracon

301 | 144

4.23 ГБ

В этой теме нет новых непрочитанных сообщений. Мульт утро [S01] (Россия HD) [Мультсериал, компьютерная анимация, сказка, детский, семейный, 2015] HDTV 1080i

Dracon

68 | 118

29.08 ГБ

В этой теме нет новых непрочитанных сообщений. Галгамет / Galgamet [Фэнтези, приключения, семейный, детский, 1996] DVDRip, Dvo+Avo

salma3

44 | 6

1.59 ГБ

В этой теме нет новых непрочитанных сообщений. Олли и сокровища пиратов / Dive Olly Dive and the Pirate Treasure [мультфильм, семейный, детский, 2014] DVDRip, Dub [лицензия]

Dracon

767 | 24

1.46 ГБ

В этой теме нет новых непрочитанных сообщений. Праздничный салют. Москва (Лужнецкая набережная) (Россия) [Документальный, 2015] HDTV 1080i

Dracon

5 | 3

1.04 ГБ

В этой теме нет новых непрочитанных сообщений. Смурфы / Smurfs [S01-09] [фэнтези, семейный, мультфильм, 1981-1990] SATRip, Mvo

salma3

60 | 45

84.8 ГБ

В этой теме нет новых непрочитанных сообщений. Страна хороших деточек [Детский, приключения, семейный, 2013] DVD-5

Dracon

26 | 2

3.64 ГБ


Начать новую тему Ответить на тему  [ 1 сообщение ] 




Для Мосгорсуда, Роскомнадзора и рекламодателей:: mosgorsud-torrent[собачка]yandex.ru