Торрент файл
скачать торрент магнет ссылка Добавлен: 23 янв 2012, 19:41
Размер: 168.7 МБ
Сидеров: 26
Личеров: 7
Автор

СообщениеДобавлено: 23 янв 2012, 19:41 

Не в сети
Супермодератор
Аватара пользователя
Дата регистрации:
11 апр 2010, 18:10
Спасибо: 5802 / 7
Сообщения: 56779
Комаров

Перевод: Не требуется, cубтитры: отсутствуют
Формат: DVDRip, AVI, XviD, AC3
Страна: СССР
Режиссер: Леонид Носырев
Жанр: мультфильм, короткометражка, детский
Продолжительность: 00:10:00
Год выпуска: 1975
В ролях: Татьяна Колюшева, Леонид Носырев, София Митрофанова
Описание: О приключениях любознательного малыша.

Видео: 704x528(1.32:1),25 fps,XviD build 47, 2327kbps avg,0.18 bit/pixel
Аудио: 48 kHz,AC3 Dolby Digital,3/2 (L,C,R,l,r) + LFE ch, 96,0kbps - Русский оригинал
Параметр QPel формата: Нет
Параметр GMC формата: Без точки перехода
Параметр матрицы формата: Default (H.263)
Режим смешивания: Сжатый битовый поток
Идентификатор кодека: XVID
Идентификатор кодека/Подсказка: XviD
Продолжительность: 9 м. 41 с.
Битрейт: 2327 Кбит/сек
Ширина: 704 пикс.
Высота: 528 пикс.
Соотношение сторон: 4:3
Частота кадров: 25,000 кадр/сек
Цветовое пространство: YUV
Подвыборка цветности: 4:2:0
Битовая глубина: 8 бит
Тип развёртки: Прогрессивная
Метод сжатия: С потерями
Бит/(Пиксели*Кадры): 0.250
Размер потока: 161 Мбайт (96%)
Библиотека кодирования: XviD 1.2.1 (UTC 2008-12-04)

Аудио
Идентификатор: 1
Формат: AC-3
Формат/Информация: Audio Coding 3
Расширение режима: CM (complete main)
Идентификатор кодека: 2000
Продолжительность: 9 м. 41 с.
Вид битрейта: Постоянный
Битрейт: 96,0 Кбит/сек
Каналы: 1 канал
Расположение каналов: Front: C
Частота: 48,0 КГц
Битовая глубина: 16 бит
Метод сжатия: С потерями
Размер потока: 6,66 Мбайт (4%)
Выравнивание: Разделение по промежуткам
Продолжительность промежутка: 40мс. (1,00 видеокадр)
Время предзагрузки промежутка: 500 ms











Поделиться:




реклама партнёра


Вернуться к началу
 Профиль Отправить личное сообщение  
 
   Похожие торренты   Автор   Торрент   Размер 
В этой теме нет новых непрочитанных сообщений. Летающие звери [S01] [мультфильм, короткометражка, детский, 2012] DVD5 [Лицензия]

Ανδρέας

7 | 5

2.85 ГБ

В этой теме нет новых непрочитанных сообщений. Олли и сокровища пиратов / Dive Olly Dive and the Pirate Treasure [мультфильм, семейный, детский, 2014] DVDRip, Dub [лицензия]

Dracon

767 | 24

1.46 ГБ

В этой теме нет новых непрочитанных сообщений. иДиоты / iDiots (Big Lazy Robot VFX) [2013, короткометражка, мультфильм, WEB-DL AVC]

Nickolas3435

49 | 21

64.15 МБ

В этой теме нет новых непрочитанных сообщений. Невидимки (Сергей Комаров) [комедия, фантастика, 2013] WEB-DLRip

Dracon

31 | 4

1.37 ГБ

В этой теме нет новых непрочитанных сообщений. Невидимки (Сергей Комаров) [комедия, фантастика, 2013] WEB-DLRip

Dracon

12 | 4

699.51 МБ

В этой теме нет новых непрочитанных сообщений. Невидимки (Сергей Комаров) [комедия, фантастика, 2013] WEB-DL 720p

Dracon

17 | 4

2.79 ГБ

В этой теме нет новых непрочитанных сообщений. Дом спящих красавиц [01-02 из 02] (Сергей Комаров) [Мелодрама, 2014] HDTVRip

Dracon

223 | 13

2.74 ГБ


Начать новую тему Ответить на тему  [ 1 сообщение ] 




Для Мосгорсуда, Роскомнадзора и рекламодателей:: mosgorsud-torrent[собачка]yandex.ru