Торрент файл
скачать торрент магнет ссылка Добавлен: 20 янв 2012, 21:45
Размер: 7.19 ГБ
Сидеров: 16
Личеров: 9
Автор

СообщениеДобавлено: 20 янв 2012, 21:45 

Не в сети
Супермодератор
Аватара пользователя
Дата регистрации:
14 июн 2010, 21:00
Возраст: 28
Спасибо: 1324 / 1
Сообщения: 5644
Откуда: НиНО
Шрек (Shrek)Страна: США
Жанр: мультфильм
Продолжительность: 01:30
Год выпуска: 2001
Перевод (1): Профессиональный (дублированный)
Перевод (2): Авторский (одноголосый закадровый) - ДмитриЙ «Гоблин» Пучков
Перевод (3): Авторский (одноголосый закадровый) - Андрей Гаврилов
Перевод (4): Профессиональный (многоголосый закадровый)
Русские субтитры: есть
Режиссёр: Эндрю Адамсон / Andrew Adamson, Вики Дженсон / Vicky Jenson
Роли озвучивали: Майк Майерс, Эдди Мёрфи, Кэмерон Диаз, Джон Литгоу, Венсан Кассель, Питер Дэннис, Клив Пирс, Джим Каммингс и др.
Описание: Жил да был в сказочном государстве большой зелёный великан по имени Шрек. Жил он в гордом одиночестве в лесу, на болоте, которое считал своим. Но однажды злобный коротышка — лорд Фаркуад, правитель волшебного королевства, безжалостно согнал на Шреково болото всех сказочных обитателей.
И беспечной жизни зелёного огра пришёл конец. Но лорд Фаркуад пообещал вернуть Шреку болото, если великан добудет ему прекрасную принцессу Фиону, которая томится в неприступной башне, охраняемой огнедышащим драконом…
ОСКАР, 2002 ГОД. ПОБЕДИТЕЛЬ: ЛУЧШИЙ АНИМАЦИОННЫЙ ФИЛЬМ.
Доп. материалы:
Storyboard Pitch, Deleted Scenes:
- Fiona's Prologue
- The Deal
- Fiona Gets Them Lost
"The Tech Of Shrek" featurette
X-Box Game Playing Hints
Production Notes - text
DVD-ROM Content: DreamWorks website
http://www.dreamworksanimation.com/
"International Dubbing" featurette
Cast: Biographies - text
Filmmakers: Biographies - text
"Technical Goofs" gag reel
Progression Reel
Theatrical Trailer
Доп. информация: Исходник DVD9 Киномания, которая собрана на основе R1 SE America (Dreamworks) 2-го диска с Widescreen Version.
Удалил Гланца (DTS), English (6 ch) и English Director's Comments (2 ch), вместо них добавил дубляж, переводы Гоблина и Гаврилова.
Меню анимированное озвученное, отредактирован выбор языка.
Скачать семпл: http://multi-up.com/512284
Качество: DVD9 (Custom)
Формат: DVD-video
Видео: NTSC 16:9 (720x480) VBR ~ 6200 kbps
Аудио 1: Russian (Dolby AC3, 6 ch) 448 Kbps - Дубляж
Аудио 2: English (DTS, 6 ch) 755 Kbps
Аудио 3: Russian (Dolby AC3, 6 ch) 448 Kbps - Дмитрий «Гоблин» Пучков
Аудио 4: Russian (Dolby AC3, 6 ch) 448 Kbps - А.Гаврилов
Аудио 5: Russian (Dolby AC3, 6 ch) 448 Kbps - Многоголоска
Субтитры: английские, русские-
DVDInfo / MediaInfo
Title: Expansion Drive
Size: 7.19 Gb ( 7 542 348 KBytes ) - DVD-9
Enabled regions: 1, 2, 3, 4, 5, 6, 7, 8
VTS_01 :
Play Length: 01:29:59
Video: NTSC 16:9 (720x480) VBR, Auto Letterboxed
Audio:
Russian (Dolby AC3, 6 ch)
English (DTS, 6 ch)
Russian (Dolby AC3, 6 ch)
Russian (Dolby AC3, 6 ch)
Russian (Dolby AC3, 6 ch)
Subtitles:
English
English
Russian
VTS_02 :
Play Length: 00:22:08+00:02:04
Video: NTSC 4:3 (720x480) VBR
Audio:
English (Dolby AC3, 2 ch)
Subtitles:
English
Espanol
Francais
VTS_03 :
Play Length: 00:02:51
Video: NTSC 4:3 (720x480) VBR
Audio:
English (Dolby AC3, 2 ch)
VTS_04 :
Play Length: 00:02:50
Video: NTSC 16:9 (720x480) VBR, Auto Letterboxed
Audio:
English (Dolby AC3, 6 ch)
Subtitles:
Espanol
Francais
VTS_05 :
Play Length: 00:02:25+00:02:10+00:02:11
Video: NTSC 4:3 (720x480) VBR
Audio:
English (Dolby AC3, 2 ch)
VTS_06 :
Play Length: 00:02:05
Video: NTSC 16:9 (720x480) VBR, Auto Letterboxed
Audio:
English (Dolby AC3, 6 ch)
Francais (Dolby AC3, 6 ch)
Subtitles:
Espanol
Francais
VTS_07 :
Play Length: 00:00:20
Video: NTSC 16:9 (720x480) VBR, Auto Letterboxed
Audio:
English (Dolby AC3, 2 ch)
English (DTS, 6 ch)
VTS_08 :
Play Length: 00:00:23
Video: NTSC 16:9 (720x480) VBR, Auto Letterboxed
Audio:
English (Dolby AC3, 2 ch)
VTS_09 :
Play Length: 00:00:01
Video: NTSC 4:3 (720x480) VBR
Menu Video:
NTSC 16:9 (720x480) VBR
Auto Pan&Scan
Menu Subtitles:
Not specified
Menu English Language Unit :
Root Menu
Subpicture Menu
Audio Menu
Chapter (PTT) Menu
-------------------------------------------------------------------------------------------
General
Complete name : SHREK DVD9 R1\VIDEO_TS\VTS_01_1.VOB
Format : MPEG-PS
File size : 1 024 MiB
Duration : 16mn 17s
Overall bit rate : 8 789 Kbps
Video
ID : 224 (0xE0)
Format : MPEG Video
Format version : Version 2
Format profile : Main@Main
Format settings, BVOP : Yes
Format settings, Matrix : Default
Duration : 16mn 17s
Bit rate mode : Variable
Bit rate : 6 067 Kbps
Nominal bit rate : 9 000 Kbps
Width : 720 pixels
Height : 480 pixels
Display aspect ratio : 16:9
Frame rate : 29.970 fps
Standard : NTSC
Color space : YUV
Chroma subsampling : 4:2:0
Bit depth : 8 bits
Compression mode : Lossy
Bits/(Pixel*Frame) : 0.586
Stream size : 707 MiB (69%)
Audio #1
ID : 128 (0x80)
Format : AC-3
Format/Info : Audio Coding 3
Mode extension : CM (complete main)
Duration : 16mn 17s
Bit rate mode : Constant
Bit rate : 448 Kbps
Channel(s) : 6 channels
Channel positions : Front: L C R, Side: L R, LFE
Sampling rate : 48.0 KHz
Bit depth : 16 bits
Compression mode : Lossy
Stream size : 52.2 MiB (5%)
Audio #2
ID : 130 (0x82)
Format : AC-3
Format/Info : Audio Coding 3
Mode extension : CM (complete main)
Duration : 16mn 17s
Bit rate mode : Constant
Bit rate : 448 Kbps
Channel(s) : 6 channels
Channel positions : Front: L C R, Side: L R, LFE
Sampling rate : 48.0 KHz
Bit depth : 16 bits
Compression mode : Lossy
Stream size : 52.2 MiB (5%)
Audio #3
ID : 131 (0x83)
Format : AC-3
Format/Info : Audio Coding 3
Mode extension : CM (complete main)
Duration : 16mn 17s
Bit rate mode : Constant
Bit rate : 448 Kbps
Channel(s) : 6 channels
Channel positions : Front: L C R, Side: L R, LFE
Sampling rate : 48.0 KHz
Bit depth : 16 bits
Compression mode : Lossy
Stream size : 52.2 MiB (5%)
Audio #4
ID : 132 (0x84)
Format : AC-3
Format/Info : Audio Coding 3
Mode extension : CM (complete main)
Duration : 16mn 17s
Bit rate mode : Constant
Bit rate : 448 Kbps
Channel(s) : 6 channels
Channel positions : Front: L C R, Side: L R, LFE
Sampling rate : 48.0 KHz
Bit depth : 16 bits
Compression mode : Lossy
Stream size : 52.2 MiB (5%)
Audio #5
ID : 137 (0x89)
Format : DTS
Format/Info : Digital Theater Systems
Duration : 16mn 17s
Bit rate mode : Constant
Bit rate : 755 Kbps
Channel(s) : 6 channels
Channel positions : Front: L C R, Side: L R, LFE
Sampling rate : 48.0 KHz
Bit depth : 24 bits
Compression mode : Lossy
Stream size : 87.9 MiB (9%)
Text #1
ID : 32 (0x20)
Format : RLE
Format/Info : Run-length encoding
Delay relative to video : 2s 2ms
Text #2
ID : 33 (0x21)
Format : RLE
Format/Info : Run-length encoding
Duration : 16mn 3s
Delay relative to video : 8s 408ms
Text #3
ID : 34 (0x22)
Format : RLE
Format/Info : Run-length encoding
Delay relative to video : 2s 369ms
Text #4
ID : 224 (0xE0)-DVD-2
Format : EIA-608
Muxing mode : DVD-Video
Muxing mode, more info : Muxed in Video #1
Stream size : 0.00 Byte (0%)
Menu
Скриншоты меню
Скриншоты

->>> Шрек навсегда / Shrek Forever After [2010, DVD9] R1, DUB + Original (DTS, AC3) + Sub (rus, eng, spa) <<<




реклама партнёра


Вернуться к началу
 Профиль Отправить личное сообщение  
 
   Похожие торренты   Автор   Торрент   Размер 
В этой теме нет новых непрочитанных сообщений. В поисках Дори / Finding Dory (Мультфильм, комедия, приключения, семейный, 2016) DVD9 | Custom

marya111

29 | 18

6.39 ГБ

В этой теме нет новых непрочитанных сообщений. Сокровища государства / Treasure state (Эндрю Уист / Andrew Wiest) [2013г., приключения, WEB-DL 1080p] MVO

Alfredovich

12 | 0

2.13 ГБ

В этой теме нет новых непрочитанных сообщений. Первый мститель: Противостояние / Captain America: Civil War [Фантастика, боевик, приключения, 2016] DVD9, Dub [Custom]

salma3

40 | 22

7.23 ГБ

В этой теме нет новых непрочитанных сообщений. Лара Крофт: Расхитительница гробниц / Lara Croft: Tomb Raider [боевик, фэнтези, приключения, 2001] BDRip, Avo [Гаврилов]

salma3

42 | 5

1.37 ГБ

В этой теме нет новых непрочитанных сообщений. Недооформлен [MilfsLikeItBig] Alura Jenson (Pork Me) (2014) SiteRip Данный торрент является блокированным, причина: недооформленный торрент

friizze

11 | 14

471.29 МБ

В этой теме нет новых непрочитанных сообщений. [WatchingMyMomGoBlack.com / DogFartNetwork.com] Alura Jenson and Piper Perri [2016 г., Interracial, Big Tits, MILF, Young, Big Dick, 1080p]

killerslava

77 | 52

2.07 ГБ

В этой теме нет новых непрочитанных сообщений. В поисках Дори / Finding Dory (Эндрю Стэнтон, Энгус МакЛэйн) [2016, Мультфильм, комедия, приключения, семейный, HDRip | Локализованный видеоряд | Лицензия] Dub

marya111

473 | 27

1.46 ГБ


Начать новую тему Ответить на тему  [ 1 сообщение ] 




Для Мосгорсуда, Роскомнадзора и рекламодателей:: mosgorsud-torrent[собачка]yandex.ru