Торрент файл
скачать торрент магнет ссылка Добавлен: 20 янв 2012, 21:45
Размер: 768.13 МБ
Сидеров: 15
Личеров: 8
Автор

СообщениеДобавлено: 20 янв 2012, 21:45 

Не в сети
Супермодератор
Аватара пользователя
Дата регистрации:
14 июн 2010, 21:00
Возраст: 29
Спасибо: 1337 / 1
Сообщения: 5611
Откуда: НиНО
Тачки 2 / Cars 2
-Страна: США
Студия: Pixar Animation Studios, Walt Disney Pictures
Жанр: мультфильм, комедия, приключения, семейный
Год выпуска: 2011
Мировая премьера: 18 июня 2011
Российская премьера: 23 июня 2011, «WDSSPR» 3D
Дата выхода DVD: 1 ноября 2011, «Уолт Дисней Компани СНГ»
Дата выхода Blu-Ray: 29 ноября 2011, «Уолт Дисней Компани СНГ»
Продолжительность: 01:42:38
Перевод: Профессиональный (дублированный) [Лицензия]
Cубтитры: русские, английские
Оригинальная аудиодорожка: английский-Режиссер: Джон Лассетер, Брэд Льюис / John Lasseter, Brad Lewis-Роли озвучивали: Оуэн Уилсон, Ларри Кейбл Гай, Майкл Кейн, Эмили Мортимер, Эдди Иззард, Джон Туртурро, Брент Мусбургер, Джо Мантенья, Томас Кречманн, Питер Джекобсон-Роли дублировали: Дмитрий Харатьян, Сергей Кузнецов, Леонид Каневский, Жанна Фриске, Леонид Ярмольник и др.
-Описание: Молния МакКуин и его друг Мэтр отправляются в международное путешествие — когда МакКуин получает шанс участвовать в соревнованиях для самых быстрых машин в мире, Мировом Гран-При. Этапы этих престижных гонок заведут друзей в Токио, на набережные Парижа, на побережье Италии, и на улицы туманного Лондона.-Бонусы: Гавайские каникулы, Аэро-Метр, Безопасность на дороге; Смотри в оба!, ролики-Дополнительная информация: За диск спасибо avproh- -Релиз группы:-Качество: DVD9 R5 (Россия)
Формат: DVD-Video
Видео кодек: MPEG2
Аудио кодек: AC3
Видео: PAL 16:9 (720x576(0.703)) MPEG Video, 25,000 кадр/сек, 7287 Кбит/сек
Аудио #1: Russian (Dolby AC3, 6 ch) 384 Кбит/сек, 48,0 КГц
Аудио #2: English (Dolby AC3, 6 ch) 384 Кбит/сек, 48,0 КГц
Аудио #3: Kazakh (Dolby AC3, 6 ch) 384 Кбит/сек, 48,0 КГц-
-
DVDInfo
Title: Рабочий
Size: 6.94 Gb ( 7 278 666 KBytes ) - DVD-9
Enabled regions: 1, 2, 3, 4, 5, 6, 7, 8
VTS_01 :
Play Length:
Video: PAL 4:3 (720x576) VBR
Audio:
Interlingua (Dolby AC3, 2 ch)
VTS_02 :
Play Length:
Video: PAL 4:3 (720x576) VBR
VTS_03 :
Play Length:
Video: PAL 16:9 (720x576) VBR, Auto Pan&Scan
Audio:
Not specified (Dolby AC3, 2 ch)
Not specified (Dolby AC3, 2 ch)
Not specified (Dolby AC3, 2 ch)
Not specified (Dolby AC3, 2 ch)
Not specified (Dolby AC3, 2 ch)
Not specified (Dolby AC3, 2 ch)
Not specified (Dolby AC3, 2 ch)
Not specified (Dolby AC3, 2 ch)
Subtitles:
Not specified
Not specified
Not specified
Not specified
Not specified
Not specified
Not specified
Not specified
Not specified
Not specified
Not specified
Not specified
VTS_04 :
Play Length: 00:00:11
Video: PAL 16:9 (720x576) VBR, Auto Letterboxed
Audio:
English (Dolby AC3, 6 ch)
VTS_05 :
Play Length: 00:00:16+00:00:05
Video: PAL 16:9 (720x576) VBR, Auto Pan&Scan
Audio:
English (Dolby AC3, 6 ch)
Subtitles:
Russian
VTS_06 :
Play Length: 00:00:16+00:00:15
Video: PAL 16:9 (720x576) VBR, Auto Pan&Scan
Audio:
English (Dolby AC3, 2 ch)
Subtitles:
Not specified
VTS_07 :
Play Length: 00:05:40+00:00:15
Video: PAL 16:9 (720x576) VBR, Auto Letterboxed
Audio:
English (Dolby AC3, 6 ch)
Russian (Dolby AC3, 5 ch)
Subtitles:
English
English
Russian
English
Russian
VTS_08 :
Play Length:
Video: NTSC 16:9 (720x480) VBR, Auto Letterboxed
VTS_09 :
Play Length:
Video: NTSC 16:9 (720x480) VBR, Auto Letterboxed
VTS_10 :
Play Length:
Video: NTSC 16:9 (720x480) VBR, Auto Letterboxed
VTS_11 :
Play Length:
Video: NTSC 16:9 (720x480) VBR, Auto Letterboxed
VTS_12 :
Play Length: 00:01:51+01:41:55+01:42:40
Video: PAL 16:9 (720x576) VBR, Auto Letterboxed
Audio:
English (Dolby AC3, 6 ch)
Russian (Dolby AC3, 6 ch)
Kazakh (Dolby AC3, 6 ch)
Subtitles:
English
English
Russian
English
Russian
VTS_13 :
Play Length:
Video: NTSC 16:9 (720x480) VBR, Auto Letterboxed
VTS_14 :
Play Length:
Video: NTSC 16:9 (720x480) VBR, Auto Letterboxed
VTS_15 :
Play Length:
Video: NTSC 16:9 (720x480) VBR, Auto Letterboxed
VTS_16 :
Play Length:
Video: NTSC 16:9 (720x480) VBR, Auto Letterboxed
VTS_17 :
Play Length:
Video: NTSC 16:9 (720x480) VBR, Auto Letterboxed
VTS_18 :
Play Length:
Video: NTSC 16:9 (720x480) VBR, Auto Letterboxed
VTS_19 :
Play Length: 00:05:12+00:00:20
Video: PAL 16:9 (720x576) VBR, Auto Letterboxed
Audio:
English (Dolby AC3, 6 ch)
Russian (Dolby AC3, 6 ch)
Subtitles:
Russian
VTS_20 :
Play Length: 00:03:24+00:06:08+00:02:44
Video: PAL 16:9 (720x576) VBR, Auto Letterboxed
Audio:
English (Dolby AC3, 2 ch)
Russian (Dolby AC3, 2 ch)
Subtitles:
English
Russian
VTS_21 :
Play Length: 00:01:49
Video: PAL 16:9 (720x576) VBR, Auto Letterboxed
Audio:
Russian (Dolby AC3, 2 ch)
Subtitles:
Russian
MediaInfo
Общее
Полное имя : G:\Новинки 2011\Tachky.2.2011.DVD9\VIDEO_TS\VTS_12_3.VOB
Формат : MPEG-PS
Размер файла : 1024 Мбайт
Продолжительность : 16 м.
Общий поток : 8610 Кбит/сек
Видео
Идентификатор : 224 (0xE0)
Формат : MPEG Video
Версия формата : Version 2
Профиль формата : Main@Main
Параметр BVOP формата : Да
Параметр матрицы формата : Выборочная
Параметр GOP формата : M=3, N=12
Продолжительность : 16 м.
Вид битрейта : Переменный
Битрейт : 7287 Кбит/сек
Максимальный битрейт : 9800 Кбит/сек
Ширина : 720 пикселей
Высота : 576 пикселей
Соотношение сторон : 16:9
Частота кадров : 25,000 кадров/сек
Стандарт вещания : Component
Цветовое пространство : YUV
Субдискретизация насыщенности : 4:2:0
Битовая глубина : 8 бит
Тип развёртки : Прогрессивная
Порядок развёртки : Верхнее поле первое
Метод сжатия : С потерями
Бит/(Пиксели*Кадры) : 0.703
Размер потока : 867 Мбайт (85%)
Аудио #1
Идентификатор : 189 (0xBD)-128 (0x80)
Формат : AC-3
Формат/Информация : Audio Coding 3
Расширение режима : CM (complete main)
Режим смешивания : DVD-Video
Продолжительность : 16 м.
Вид битрейта : Постоянный
Битрейт : 384 Кбит/сек
Каналы : 6 каналов
Расположение каналов : Front: L C R, Side: L R, LFE
Частота : 48,0 КГц
Битовая глубина : 16 бит
Метод сжатия : С потерями
Задержка видео : -576 мс.
Размер потока : 45,7 Мбайт (4%)
Аудио #2
Идентификатор : 189 (0xBD)-129 (0x81)
Формат : AC-3
Формат/Информация : Audio Coding 3
Расширение режима : CM (complete main)
Режим смешивания : DVD-Video
Продолжительность : 16 м.
Вид битрейта : Постоянный
Битрейт : 384 Кбит/сек
Каналы : 6 каналов
Расположение каналов : Front: L C R, Side: L R, LFE
Частота : 48,0 КГц
Битовая глубина : 16 бит
Метод сжатия : С потерями
Задержка видео : -576 мс.
Размер потока : 45,7 Мбайт (4%)
Аудио #3
Идентификатор : 189 (0xBD)-130 (0x82)
Формат : AC-3
Формат/Информация : Audio Coding 3
Расширение режима : CM (complete main)
Режим смешивания : DVD-Video
Продолжительность : 16 м.
Вид битрейта : Постоянный
Битрейт : 384 Кбит/сек
Каналы : 6 каналов
Расположение каналов : Front: L C R, Side: L R, LFE
Частота : 48,0 КГц
Битовая глубина : 16 бит
Метод сжатия : С потерями
Задержка видео : -576 мс.
Размер потока : 45,7 Мбайт (4%)
Текст #1
Идентификатор : 189 (0xBD)-32 (0x20)
Формат : RLE
Формат/Информация : Run-length encoding
Режим смешивания : DVD-Video
Задержка видео : 600 мс.
Текст #2
Идентификатор : 189 (0xBD)-33 (0x21)
Формат : RLE
Формат/Информация : Run-length encoding
Режим смешивания : DVD-Video
Задержка видео : 600 мс.
Текст #3
Идентификатор : 189 (0xBD)-34 (0x22)
Формат : RLE
Формат/Информация : Run-length encoding
Режим смешивания : DVD-Video
Задержка видео : 440 мс.
Текст #4
Идентификатор : 189 (0xBD)-35 (0x23)
Формат : RLE
Формат/Информация : Run-length encoding
Режим смешивания : DVD-Video
Задержка видео : 440 мс.
Текст #5
Идентификатор : 189 (0xBD)-36 (0x24)
Формат : RLE
Формат/Информация : Run-length encoding
Режим смешивания : DVD-Video
Задержка видео : 440 мс.
Текст #6
Идентификатор : 189 (0xBD)-37 (0x25)
Формат : RLE
Формат/Информация : Run-length encoding
Режим смешивания : DVD-Video
Задержка видео : 440 мс.
Скриншоты меню
Скриншоты мультфильма
Скриншоты доп. материалов
-
-Раздача от группы:




реклама партнёра


Вернуться к началу
 Профиль Отправить личное сообщение  
 
   Похожие торренты   Автор   Торрент   Размер 
В этой теме нет новых непрочитанных сообщений. Тачки 3 / Cars 3 [Мультфильм, комедия, приключения, 2017] WEB-DLRip, Dub [iTunes]

salma3

0 | 0

745.35 МБ

В этой теме нет новых непрочитанных сообщений. Тачки 3 / Cars 3 [Мультфильм, комедия, приключения, 2017] Blu-ray EUR 1080p, Dub+Sub [Лицензия]

salma3

9 | 19

33.32 ГБ

В этой теме нет новых непрочитанных сообщений. Тачки 3 / Cars 3 [Мультфильм, комедия, приключения, 2017] WEB-DLRip-AVC, Dub [iTunes]

salma3

0 | 0

2.43 ГБ

В этой теме нет новых непрочитанных сообщений. Тачки 3 / Cars 3 [Мультфильм, комедия, приключения, 2017] BDRip, Dub+Sub [Лицензия]

salma3

0 | 0

1.46 ГБ

В этой теме нет новых непрочитанных сообщений. Тачки 3 / Cars 3 [Мультфильм, комедия, приключения, 2017] BDRip 720p, Dub+Sub [Лицензия]

salma3

0 | 0

6.48 ГБ

В этой теме нет новых непрочитанных сообщений. Тачки 3 / Cars 3 [Мультфильм, комедия, приключения, 2017] BDRip 1080p, Dub+Sub [Лицензия]

salma3

0 | 0

8.78 ГБ

В этой теме нет новых непрочитанных сообщений. Тачки / Cars [Мультфильм, комедия, приключения, 2006] WEB-DL 1080p, Dub [Open Matte]

salma3

22 | 2

7.27 ГБ


Начать новую тему Ответить на тему  [ 1 сообщение ] 




Для Мосгорсуда, Роскомнадзора и рекламодателей:: mosgorsud-torrent[собачка]yandex.ru