Торрент файл
скачать торрент магнет ссылка Добавлен: 28 янв 2017, 18:10
Размер: 744.31 МБ
Сидеров: 235
Личеров: 22
Автор

СообщениеДобавлено: 28 янв 2017, 18:10 

Не в сети
Дата регистрации:
28 сен 2016, 18:10
Спасибо: 199 / 0
Сообщения: 2005
Информация о фильме
Название: Одноклассницы
Оригинальное название: Одноклассницы
Год выхода: 2016
Жанр: комедия
Режиссер: Дмитрий Суворов
В ролях: Светлана Ходченкова, Екатерина Вилкова, Валентина Мазунина, Ольга Кузьмина, Арарат Кещян, Роман Юнусов, Илья Любимов, Антон Макарский, Денис Косяков, Дмитрий Хрусталев
О фильме: Три подруги Вика, Света и Даша бросают свои дела и едут в Сочи на девичник к бывшей однокласснице Кате, чтобы как следует там оторваться. Веселье в разгаре и шампанское льется рекой, но тут случается то, чего никто не мог ожидать — в самый разгар праздника Катя застает своего жениха с пышногрудой блондинкой. Невеста в истерике. Она запирается в номере и говорит, что готова выйти за первого встречного, лишь бы не за него. Свадьба назначена на завтра и у решительных подруг есть всего лишь одна ночь, чтобы найти Кате нового мужа. Удастся ли им это?

Выпущено: Россия / Кинофирма
Продолжительность: 01:14:18
Перевод: Не требуется [Лицензия, R5]
Файл
Кодек: х264
Качество: DVDRip-AVC
Видео: 720x310 (2.35:1), 25.000 fps, MPEG-4 AVC ~1208 kbps avg, 0.216 bit/pixel
Аудио: 48 kHz, AC3, 2 ch, ~192.00 kbps avg
Общее
Уникальный идентификатор : 195858090498161070588250386176785949105 (0x9358E5690B373421892BFAA21E6EA1B1)
Полное имя : D:TempOdnoklasnici.2016.DVDRip-AVC .OlLanDGroup.mkv
Формат : Matroska
Версия формата : Version 2
Размер файла : 744 Мбайт
Продолжительность : 1 ч. 14 м.
Общий поток : 1401 Кбит/сек
Дата кодирования : UTC 2017-01-26 15:21:50
Программа кодирования : mkvmerge v7.8.0 ('River Man') 32bit built on Apr 3 2015 12:11:22
Библиотека кодирования : libebml v1.3.1 + libmatroska v1.4.2
Видео
Идентификатор : 1
Формат : AVC
Формат/Информация : Advanced Video Codec
Профиль формата : High@L4.1
Параметр CABAC формата : Да
Параметр ReFrames формата : 10 кадров
Идентификатор кодека : V_MPEG4/ISO/AVC
Продолжительность : 1 ч. 14 м.
Битрейт : 1208 Кбит/сек
Ширина : 720 пикселей
Высота : 310 пикселей
Соотношение сторон : 2,35:1
Режим частоты кадров : Постоянный
Частота кадров : 25,000 кадров/сек
Цветовое пространство : YUV
Субдискретизация насыщенности : 4:2:0
Битовая глубина : 8 бит
Тип развёртки : Прогрессивная
Бит/(Пиксели*Кадры) : 0.216
Размер потока : 627 Мбайт (84%)
Библиотека кодирования : x264 core 146 r2538 121396c
Настройки программы : cabac=1 / ref=10 / deblock=1:-3:-3 / analyse=0x3:0x113 / me=umh / subme=11 / psy=1 / psy_rd=1.00:0.05 / mixed_ref=1 / me_range=48 / chroma_me=1 / trellis=2 / 8x8dct=1 / cqm=0 / deadzone=21,11 / fast_pskip=0 / chroma_qp_offset=-3 / threads=6 / lookahead_threads=1 / sliced_threads=0 / nr=0 / decimate=0 / interlaced=0 / bluray_compat=0 / constrained_intra=0 / bframes=10 / b_pyramid=2 / b_adapt=2 / b_bias=0 / direct=3 / weightb=1 / open_gop=0 / weightp=2 / keyint=250 / keyint_min=25 / scenecut=40 / intra_refresh=0 / rc_lookahead=40 / rc=2pass / mbtree=0 / bitrate=1208 / ratetol=1.0 / qcomp=0.60 / qpmin=0 / qpmax=69 / qpstep=4 / cplxblur=20.0 / qblur=0.5 / vbv_maxrate=14000 / vbv_bufsize=14000 / nal_hrd=none / filler=0 / ip_ratio=1.40 / pb_ratio=1.30 / aq=1:1.00
Default : Да
Forced : Нет
Аудио
Идентификатор : 2
Формат : AC-3
Формат/Информация : Audio Coding 3
Расширение режима : CM (complete main)
Параметр Endianness формата : Big
Идентификатор кодека : A_AC3
Продолжительность : 1 ч. 14 м.
Вид битрейта : Постоянный
Битрейт : 192 Кбит/сек
Каналы : 2 канала
Расположение каналов : Front: L R
Частота : 48,0 КГц
Битовая глубина : 16 бит
Метод сжатия : С потерями
Размер потока : 102 Мбайт (14%)
Default : Да
Forced : Нет



Релиз от:




реклама партнёра


Вернуться к началу
 Профиль Отправить личное сообщение  
 
   Похожие торренты   Автор   Торрент   Размер 
В этой теме нет новых непрочитанных сообщений. Одноклассницы (2016) DVDRip-AVC от OlLanDGroup | Лицензия

marya111

384 | 17

1.46 ГБ

В этой теме нет новых непрочитанных сообщений. Одноклассницы [Комедия, 2016] DVDRip [Лицензия]

salma3

547 | 55

744.25 МБ

В этой теме нет новых непрочитанных сообщений. Одноклассницы [комедия, 2016] DVDRip [Лицензия]

marya111

1003 | 102

1.37 ГБ

В этой теме нет новых непрочитанных сообщений. Расплата / The Accountant (2016) BDRip-AVC от OlLanDGroup | Лицензия

marya111

152 | 19

1.46 ГБ

В этой теме нет новых непрочитанных сообщений. 28 панфиловцев ( Военный, драма, 2016) BDRip-AVC от OlLanDGroup | Лицензия

marya111

167 | 22

745.62 МБ

В этой теме нет новых непрочитанных сообщений. Большой собачий побег / Ozzy (2016) BDRip-AVC от OlLanDGroup | Лицензия

marya111

58 | 4

744.73 МБ

В этой теме нет новых непрочитанных сообщений. Бен-Гур / Ben-Hur (Драма, приключения, история, 2016) BDRip 1080p от OlLanDGroup | US Transfer | Лицензия

marya111

1296 | 296

8.4 ГБ


Начать новую тему Ответить на тему  [ 1 сообщение ] 




Для Мосгорсуда, Роскомнадзора и рекламодателей:: mosgorsud-torrent[собачка]yandex.ru