Торрент файл
скачать торрент магнет ссылка Добавлен: 28 янв 2017, 18:10
Размер: 745.19 МБ
Сидеров: 9
Личеров: 6
Автор

СообщениеДобавлено: 28 янв 2017, 18:10 

Не в сети
Дата регистрации:
28 сен 2016, 18:10
Спасибо: 208 / 0
Сообщения: 1999

Страна: СССР
Производство: Ленфильм
Жанр: драма, биография, история
Год выпуска: 1956
Продолжительность: 01:34:09
Перевод: Не требуется
Cубтитры: нет
Оригинальная аудиодорожка: русский
Режиссер: Иосиф Шапиро
В ролях:
Елена Юнгер, Лев Колесов, Тамара Сезеневская, Арон Подгур, Владимир Усков, Бруно Фрейндлих, Евгения Волкова (II), Александр Жуков, Павел Суханов...
Об актёрах подробней
Описание:
Экранизация пьесы Петра Рыжея и Леонида Тубельского (братья Тур) о жизни русского ученого-математика Софьи Ковалевской, поставленной Ленинградским театром комедии.





Источник: DVB
Качество видео: SATRip
Формат видео: AVI
Видео: 576x432 (4:3), 25 fps, XviD ~ 969 kbps avg, 0.156 bit/pixel
Аудио: 48 kHz, MP3 2.0, 128 kbps
Раздача от:
Общее
Полное имя : Sofya.Kovalevskaya.1956.SATRip-745_[New-team]_by_AVP_Studio.avi
Формат : AVI
Формат/Информация : Audio Video Interleave
Размер файла : 745 Мбайт
Продолжительность : 1 ч. 34 м.
Общий поток : 1107 Кбит/сек
Программа кодирования : VirtualDubMod 1.5.10.3 | www.virtualdub-fr.org || (build 2550/release)
Библиотека кодирования : VirtualDubMod build 2550/release
Видео
Идентификатор : 0
Формат : MPEG-4 Visual
Профиль формата : Advanced Simple@L5
Параметр BVOP формата : 1
Параметр QPel формата : Нет
Параметр GMC формата : Без точки перехода
Параметр матрицы формата : Выборочная
Идентификатор кодека : XVID
Идентификатор кодека/Подсказка : XviD
Продолжительность : 1 ч. 34 м.
Битрейт : 969 Кбит/сек
Ширина : 576 пикселей
Высота : 432 пикселя
Соотношение сторон : 4:3
Частота кадров : 25,000 кадров/сек
Цветовое пространство : YUV
Субдискретизация насыщенности : 4:2:0
Битовая глубина : 8 бит
Тип развёртки : Прогрессивная
Метод сжатия : С потерями
Бит/(Пиксели*Кадры) : 0.156
Размер потока : 652 Мбайт (88%)
Библиотека кодирования : XviD 73
Аудио
Идентификатор : 1
Формат : MPEG Audio
Версия формата : Version 1
Профиль формата : Layer 3
Идентификатор кодека : 55
Идентификатор кодека/Подсказка : MP3
Продолжительность : 1 ч. 34 м.
Вид битрейта : Постоянный
Битрейт : 128 Кбит/сек
Каналы : 2 канала
Частота : 48,0 КГц
Метод сжатия : С потерями
Размер потока : 86,2 Мбайт (12%)
Выравнивание : Соединение по промежуткам
Продолжительность промежутка : 40 мс. (1,00 видеокадр)
Время предзагрузки промежутка : 504 мс.
Библиотека кодирования : LAME3.99r
Настройки программы : -m s -V 4 -q 2 -lowpass 17 -b 128






реклама партнёра


Вернуться к началу
 Профиль Отправить личное сообщение  
 
   Похожие торренты   Автор   Торрент   Размер 
В этой теме нет новых непрочитанных сообщений. Софья Ковалевская (1956) SATRip от New-Team

marya111

13 | 3

1.46 ГБ

В этой теме нет новых непрочитанных сообщений. Софья Ковалевская (1956) SATRip-AVC от New-Team

marya111

20 | 2

1.46 ГБ

В этой теме нет новых непрочитанных сообщений. Призвание (1956) SATRip-AVC от New-Team

marya111

25 | 4

1.09 ГБ

В этой теме нет новых непрочитанных сообщений. Призвание (1956) SATRip от New-Team

marya111

13 | 2

1.09 ГБ

В этой теме нет новых непрочитанных сообщений. Призвание (1956) SATRip от New-Team

marya111

8 | 5

745.59 МБ

В этой теме нет новых непрочитанных сообщений. Путешествие в молодость (1956) SATRip от New-Team

marya111

24 | 14

1.09 ГБ

В этой теме нет новых непрочитанных сообщений. Серый разбойник (1956) SATRip от New-Team

marya111

25 | 7

743.97 МБ


Начать новую тему Ответить на тему  [ 1 сообщение ] 




Для Мосгорсуда, Роскомнадзора и рекламодателей:: mosgorsud-torrent[собачка]yandex.ru