Торрент файл
скачать торрент магнет ссылка Добавлен: 28 янв 2017, 18:10
Размер: 744.33 МБ
Сидеров: 77
Личеров: 3
Автор

СообщениеДобавлено: 28 янв 2017, 18:10 

Не в сети
Дата регистрации:
28 сен 2016, 18:10
Спасибо: 199 / 0
Сообщения: 2005

Страна: СССР
Производство: Моснаучфильм
Жанр: приключения
Год выпуска: 1956
Продолжительность: 01:03:30
Перевод: Не требуется
Cубтитры: нет
Оригинальная аудиодорожка: русский
Режиссер: Борис Долин
В ролях:
Сергей Гребенников, Валентин Грачёв, Владимир Гуськов, Саша Копелев, Нина Шорина...
Об актёрах подробней
Описание:
В лесу недалеко от села поселилась волчья стая. Вожаком стаи был матерый волк по прозвищу Трехпалый. Дерзкие набеги волков опустошали колхозное стадо, и всякий раз Трехпалый хитро увертывался от охотников и спасал свою стаю. Когда наступила весна, трое юных друзей Сережа, Геннадий и Петя, решив избавить свой колхоз от «разбойников», пошли искать волчье логово.





Источник: DVB
Качество видео: SATRip-AVC
Формат видео: MKV
Видео: 688->760x570 (4:3), 25 fps, H264 ~ 1445 kbps avg, 0.147 bit/pixel
Аудио: 48 kHz, Dolby Digital AC3 2.0, 192 kbps
Раздача от:
Общее
Полное имя : Seryy.razboynik.1956.SATRip-AVC_[New-team]_by_AVP_Studio.mkv
Формат : Matroska
Версия формата : Version 2
Размер файла : 744 Мбайт
Продолжительность : 1 ч. 3 м.
Общий поток : 1639 Кбит/сек
Дата кодирования : UTC 2017-01-24 12:47:15
Программа кодирования : mkvmerge v6.1.0 ('Old Devil') built on Mar 4 2013 09:10:42
Библиотека кодирования : libebml v1.3.0 + libmatroska v1.4.0
Видео
Идентификатор : 1
Формат : AVC
Формат/Информация : Advanced Video Codec
Профиль формата : High@L4.1
Параметр CABAC формата : Да
Параметр ReFrames формата : 10 кадров
Идентификатор кодека : V_MPEG4/ISO/AVC
Продолжительность : 1 ч. 3 м.
Битрейт : 1445 Кбит/сек
Ширина : 688 пикселей
Высота : 570 пикселей
Соотношение сторон : 4:3
Режим частоты кадров : Постоянный
Частота кадров : 25,000 кадров/сек
Цветовое пространство : YUV
Субдискретизация насыщенности : 4:2:0
Битовая глубина : 8 бит
Тип развёртки : Прогрессивная
Бит/(Пиксели*Кадры) : 0.147
Размер потока : 642 Мбайт (86%)
Библиотека кодирования : x264 core 148 r2597 e86f3a1
Настройки программы : cabac=1 / ref=10 / deblock=1:-2:-1 / analyse=0x3:0x113 / me=umh / subme=10 / psy=1 / psy_rd=1.00:0.00 / mixed_ref=1 / me_range=32 / chroma_me=1 / trellis=2 / 8x8dct=1 / cqm=0 / deadzone=21,11 / fast_pskip=1 / chroma_qp_offset=-2 / threads=6 / lookahead_threads=1 / sliced_threads=0 / nr=0 / decimate=0 / interlaced=0 / bluray_compat=0 / constrained_intra=0 / bframes=8 / b_pyramid=2 / b_adapt=2 / b_bias=0 / direct=3 / weightb=1 / open_gop=0 / weightp=2 / keyint=250 / keyint_min=25 / scenecut=40 / intra_refresh=0 / rc=2pass / mbtree=0 / bitrate=1445 / ratetol=1.0 / qcomp=0.60 / qpmin=0 / qpmax=69 / qpstep=4 / cplxblur=20.0 / qblur=0.5 / ip_ratio=1.40 / pb_ratio=1.30 / aq=1:1.00
Default : Да
Forced : Нет
Аудио
Идентификатор : 2
Формат : AC-3
Формат/Информация : Audio Coding 3
Расширение режима : CM (complete main)
Параметр Endianness формата : Big
Идентификатор кодека : A_AC3
Продолжительность : 1 ч. 3 м.
Вид битрейта : Постоянный
Битрейт : 192 Кбит/сек
Каналы : 2 канала
Расположение каналов : Front: L R
Частота : 48,0 КГц
Частота кадров : 31,250 кадров/сек (1536 spf)
Битовая глубина : 16 бит
Метод сжатия : С потерями
Размер потока : 87,2 Мбайт (12%)
Default : Да
Forced : Нет






реклама партнёра


Вернуться к началу
 Профиль Отправить личное сообщение  
 
   Похожие торренты   Автор   Торрент   Размер 
В этой теме нет новых непрочитанных сообщений. Серый разбойник (1956) SATRip от New-Team

marya111

25 | 7

743.97 МБ

В этой теме нет новых непрочитанных сообщений. Призвание (1956) SATRip от New-Team

marya111

13 | 2

1.09 ГБ

В этой теме нет новых непрочитанных сообщений. Призвание (1956) SATRip от New-Team

marya111

8 | 5

745.59 МБ

В этой теме нет новых непрочитанных сообщений. Призвание (1956) SATRip-AVC от New-Team

marya111

25 | 4

1.09 ГБ

В этой теме нет новых непрочитанных сообщений. Софья Ковалевская (1956) SATRip-AVC от New-Team

marya111

20 | 2

1.46 ГБ

В этой теме нет новых непрочитанных сообщений. Софья Ковалевская (1956) SATRip от New-Team

marya111

13 | 3

1.46 ГБ

В этой теме нет новых непрочитанных сообщений. Софья Ковалевская (1956) SATRip от New-Team

marya111

9 | 6

745.19 МБ


Начать новую тему Ответить на тему  [ 1 сообщение ] 




Для Мосгорсуда, Роскомнадзора и рекламодателей:: mosgorsud-torrent[собачка]yandex.ru