Торрент файл
скачать торрент магнет ссылка Добавлен: 28 янв 2017, 18:10
Размер: 743.97 МБ
Сидеров: 25
Личеров: 7
Автор

СообщениеДобавлено: 28 янв 2017, 18:10 

Не в сети
Дата регистрации:
28 сен 2016, 18:10
Спасибо: 205 / 0
Сообщения: 2003

Страна: СССР
Производство: Моснаучфильм
Жанр: приключения
Год выпуска: 1956
Продолжительность: 01:03:30
Перевод: Не требуется
Cубтитры: нет
Оригинальная аудиодорожка: русский
Режиссер: Борис Долин
В ролях:
Сергей Гребенников, Валентин Грачёв, Владимир Гуськов, Саша Копелев, Нина Шорина...
Об актёрах подробней
Описание:
В лесу недалеко от села поселилась волчья стая. Вожаком стаи был матерый волк по прозвищу Трехпалый. Дерзкие набеги волков опустошали колхозное стадо, и всякий раз Трехпалый хитро увертывался от охотников и спасал свою стаю. Когда наступила весна, трое юных друзей Сережа, Геннадий и Петя, решив избавить свой колхоз от «разбойников», пошли искать волчье логово.





Источник: DVB
Качество видео: SATRip
Формат видео: AVI
Видео: 688x512 (4:3), 25 fps, XviD ~ 1436 kbps avg, 0.163 bit/pixel
Аудио: 48 kHz, Dolby Digital AC3 2.0, 192 kbps
Раздача от:
Общее
Полное имя : Seryy.razboynik.1956.SATRip_[New-team]_by_AVP_Studio.avi
Формат : AVI
Формат/Информация : Audio Video Interleave
Размер файла : 744 Мбайт
Продолжительность : 1 ч. 3 м.
Общий поток : 1638 Кбит/сек
Программа кодирования : VirtualDubMod 1.5.10.3 | www.virtualdub-fr.org || (build 2550/release)
Библиотека кодирования : VirtualDubMod build 2550/release
Видео
Идентификатор : 0
Формат : MPEG-4 Visual
Профиль формата : Advanced Simple@L5
Параметр BVOP формата : 1
Параметр QPel формата : Нет
Параметр GMC формата : Без точки перехода
Параметр матрицы формата : Выборочная
Идентификатор кодека : XVID
Идентификатор кодека/Подсказка : XviD
Продолжительность : 1 ч. 3 м.
Битрейт : 1436 Кбит/сек
Ширина : 688 пикселей
Высота : 512 пикселей
Соотношение сторон : 4:3
Частота кадров : 25,000 кадров/сек
Цветовое пространство : YUV
Субдискретизация насыщенности : 4:2:0
Битовая глубина : 8 бит
Тип развёртки : Прогрессивная
Метод сжатия : С потерями
Бит/(Пиксели*Кадры) : 0.163
Размер потока : 652 Мбайт (88%)
Библиотека кодирования : XviD 73
Аудио
Идентификатор : 1
Формат : AC-3
Формат/Информация : Audio Coding 3
Расширение режима : CM (complete main)
Параметр Endianness формата : Big
Идентификатор кодека : 2000
Продолжительность : 1 ч. 3 м.
Вид битрейта : Постоянный
Битрейт : 192 Кбит/сек
Каналы : 2 канала
Расположение каналов : Front: L R
Частота : 48,0 КГц
Частота кадров : 31,250 кадров/сек (1536 spf)
Битовая глубина : 16 бит
Метод сжатия : С потерями
Размер потока : 87,2 Мбайт (12%)
Выравнивание : Разделение по промежуткам
Продолжительность промежутка : 40 мс. (1,00 видеокадр)
Время предзагрузки промежутка : 500 мс






реклама партнёра


Вернуться к началу
 Профиль Отправить личное сообщение  
 
   Похожие торренты   Автор   Торрент   Размер 
В этой теме нет новых непрочитанных сообщений. Серый разбойник (1956) SATRip-AVC от New-Team

marya111

77 | 3

744.33 МБ

В этой теме нет новых непрочитанных сообщений. Призвание (1956) SATRip от New-Team

marya111

13 | 2

1.09 ГБ

В этой теме нет новых непрочитанных сообщений. Призвание (1956) SATRip от New-Team

marya111

8 | 5

745.59 МБ

В этой теме нет новых непрочитанных сообщений. Призвание (1956) SATRip-AVC от New-Team

marya111

25 | 4

1.09 ГБ

В этой теме нет новых непрочитанных сообщений. Путешествие в молодость (1956) SATRip от New-Team

marya111

24 | 14

1.09 ГБ

В этой теме нет новых непрочитанных сообщений. Софья Ковалевская (1956) SATRip от New-Team

marya111

9 | 6

745.19 МБ

В этой теме нет новых непрочитанных сообщений. Путешествие в молодость (1956) SATRip от New-Team

marya111

20 | 18

745.36 МБ


Начать новую тему Ответить на тему  [ 1 сообщение ] 




Для Мосгорсуда, Роскомнадзора и рекламодателей:: mosgorsud-torrent[собачка]yandex.ru