Торрент файл
скачать торрент магнет ссылка Добавлен: 28 янв 2017, 18:09
Размер: 1.09 ГБ
Сидеров: 25
Личеров: 8
Автор

СообщениеДобавлено: 28 янв 2017, 18:09 

Не в сети
Дата регистрации:
28 сен 2016, 18:10
Спасибо: 192 / 0
Сообщения: 2005

Страна: СССР
Производство: Мосфильм
Жанр: драма
Год выпуска: 1956
Продолжительность: 01:27:49
Перевод: Не требуется
Cубтитры: нет
Оригинальная аудиодорожка: русский
Режиссер: Абрам Роом
В ролях:
Вячеслав Тихонов, Николай Симонов, Андрей Абрикосов, Кирилл Столяров, Людмила Гурченко, Нинель Мышкова, Григорий Абрикосов, Юлиана Бугаева...
Об актёрах подробней
Описание:
По мотивам повести В. Дягилева "Доктор Голубев".
Фильм посвящен таким не теряющим актуальности вопросам, как долг и честь врача, его ответственность перед больным, умение до конца отстаивать свою точку зрения и, когда необходимо, идти на риск ради спасения вверенной тебе жизни.
Спасая тонувшего в ледяной воде, солдат Балашов получает воспаление легких, осложнившееся затем тяжелым заболеванием на сердце. Молодой доктор Голубев ставит неверный диагноз и терапевтическое лечение не дает положительных результатов. Поняв свою ошибку, Голубев предлагает хирургическое вмешательство, однако недоверие к нему со стороны главного врача госпиталя отдаляет момент принятия твердого решения и ставит жизнь больного под угрозу.





Источник: DVD5 R5
Качество видео: DVDRip-AVC
Формат видео: MKV
Видео: 696->750x562 (4:3), 25 fps, H264 ~ 1581 kbps avg, 0.162 bit/pixel
Аудио: 48 kHz, Dolby Digital AC3 2.0, 192 kbps
Раздача от:
Общее
Полное имя : Serdce.byotsya.vnov...1956.DVDRip-AVC_[New-team]_by_AVP_Studio.mkv
Формат : Matroska
Версия формата : Version 2
Размер файла : 1,09 Гбайт
Продолжительность : 1 ч. 27 м.
Общий поток : 1775 Кбит/сек
Дата кодирования : UTC 2017-01-20 14:55:50
Программа кодирования : mkvmerge v6.1.0 ('Old Devil') built on Mar 4 2013 09:10:42
Библиотека кодирования : libebml v1.3.0 + libmatroska v1.4.0
Видео
Идентификатор : 1
Формат : AVC
Формат/Информация : Advanced Video Codec
Профиль формата : High@L4.1
Параметр CABAC формата : Да
Параметр ReFrames формата : 10 кадров
Идентификатор кодека : V_MPEG4/ISO/AVC
Продолжительность : 1 ч. 27 м.
Битрейт : 1581 Кбит/сек
Ширина : 696 пикселей
Высота : 562 пикселя
Соотношение сторон : 4:3
Режим частоты кадров : Постоянный
Частота кадров : 25,000 кадров/сек
Цветовое пространство : YUV
Субдискретизация насыщенности : 4:2:0
Битовая глубина : 8 бит
Тип развёртки : Прогрессивная
Бит/(Пиксели*Кадры) : 0.162
Размер потока : 972 Мбайт (87%)
Библиотека кодирования : x264 core 148 r2597 e86f3a1
Настройки программы : cabac=1 / ref=10 / deblock=1:-2:-1 / analyse=0x3:0x113 / me=umh / subme=10 / psy=1 / psy_rd=1.00:0.00 / mixed_ref=1 / me_range=32 / chroma_me=1 / trellis=2 / 8x8dct=1 / cqm=0 / deadzone=21,11 / fast_pskip=1 / chroma_qp_offset=-2 / threads=6 / lookahead_threads=1 / sliced_threads=0 / nr=0 / decimate=0 / interlaced=0 / bluray_compat=0 / constrained_intra=0 / bframes=8 / b_pyramid=2 / b_adapt=2 / b_bias=0 / direct=3 / weightb=1 / open_gop=0 / weightp=2 / keyint=250 / keyint_min=25 / scenecut=40 / intra_refresh=0 / rc=2pass / mbtree=0 / bitrate=1581 / ratetol=1.0 / qcomp=0.60 / qpmin=0 / qpmax=69 / qpstep=4 / cplxblur=20.0 / qblur=0.5 / ip_ratio=1.40 / pb_ratio=1.30 / aq=1:1.00
Default : Да
Forced : Нет
Аудио
Идентификатор : 2
Формат : AC-3
Формат/Информация : Audio Coding 3
Расширение режима : CM (complete main)
Параметр Endianness формата : Big
Идентификатор кодека : A_AC3
Продолжительность : 1 ч. 27 м.
Вид битрейта : Постоянный
Битрейт : 192 Кбит/сек
Каналы : 2 канала
Расположение каналов : Front: L R
Частота : 48,0 КГц
Частота кадров : 31,250 кадров/сек (1536 spf)
Битовая глубина : 16 бит
Метод сжатия : С потерями
Размер потока : 121 Мбайт (11%)
Default : Да
Forced : Нет






реклама партнёра


Вернуться к началу
 Профиль Отправить личное сообщение  
 
   Похожие торренты   Автор   Торрент   Размер 
В этой теме нет новых непрочитанных сообщений. Сердце бьется вновь (1956) DVDRip от New-Team

marya111

26 | 3

1.09 ГБ

В этой теме нет новых непрочитанных сообщений. Сердце бьется вновь (1956) DVDRip от New-Team

marya111

22 | 3

744.94 МБ

В этой теме нет новых непрочитанных сообщений. Пусть сердце бьётся / Dil Dhadakne Do [драма, мелодрама, комедия, 2015] HDRip, Dvo

salma3

93 | 6

2.18 ГБ

В этой теме нет новых непрочитанных сообщений. Пролог (1956) VHSRip от New-Team

marya111

15 | 3

1.46 ГБ

В этой теме нет новых непрочитанных сообщений. Призвание (1956) SATRip от New-Team

marya111

13 | 2

1.09 ГБ

В этой теме нет новых непрочитанных сообщений. Призвание (1956) SATRip от New-Team

marya111

8 | 5

745.59 МБ

В этой теме нет новых непрочитанных сообщений. Пролог (1956) VHSRip-AVC от New-Team

marya111

30 | 3

1.46 ГБ


Начать новую тему Ответить на тему  [ 1 сообщение ] 




Для Мосгорсуда, Роскомнадзора и рекламодателей:: mosgorsud-torrent[собачка]yandex.ru