Торрент файл
скачать торрент магнет ссылка Добавлен: 28 янв 2017, 18:09
Размер: 744.94 МБ
Сидеров: 22
Личеров: 3
Автор

СообщениеДобавлено: 28 янв 2017, 18:09 

Не в сети
Дата регистрации:
28 сен 2016, 18:10
Спасибо: 199 / 0
Сообщения: 2005

Страна: СССР
Производство: Мосфильм
Жанр: драма
Год выпуска: 1956
Продолжительность: 01:27:49
Перевод: Не требуется
Cубтитры: нет
Оригинальная аудиодорожка: русский
Режиссер: Абрам Роом
В ролях:
Вячеслав Тихонов, Николай Симонов, Андрей Абрикосов, Кирилл Столяров, Людмила Гурченко, Нинель Мышкова, Григорий Абрикосов, Юлиана Бугаева...
Об актёрах подробней
Описание:
По мотивам повести В. Дягилева "Доктор Голубев".
Фильм посвящен таким не теряющим актуальности вопросам, как долг и честь врача, его ответственность перед больным, умение до конца отстаивать свою точку зрения и, когда необходимо, идти на риск ради спасения вверенной тебе жизни.
Спасая тонувшего в ледяной воде, солдат Балашов получает воспаление легких, осложнившееся затем тяжелым заболеванием на сердце. Молодой доктор Голубев ставит неверный диагноз и терапевтическое лечение не дает положительных результатов. Поняв свою ошибку, Голубев предлагает хирургическое вмешательство, однако недоверие к нему со стороны главного врача госпиталя отдаляет момент принятия твердого решения и ставит жизнь больного под угрозу.





Источник: DVD5 R5
Качество видео: DVDRip
Формат видео: AVI
Видео: 640x480 (4:3), 25 fps, XviD ~ 1048 kbps avg, 0.136 bit/pixel
Аудио: 48 kHz, MP3 2.0, 128 kbps
Раздача от:
Общее
Полное имя : Serdce.byotsya.vnov...1956.DVDRip-745_[New-team]_by_AVP_Studio.avi
Формат : AVI
Формат/Информация : Audio Video Interleave
Размер файла : 745 Мбайт
Продолжительность : 1 ч. 27 м.
Общий поток : 1186 Кбит/сек
Программа кодирования : VirtualDubMod 1.5.10.3 | www.virtualdub-fr.org || (build 2550/release)
Библиотека кодирования : VirtualDubMod build 2550/release
Видео
Идентификатор : 0
Формат : MPEG-4 Visual
Профиль формата : Advanced Simple@L5
Параметр BVOP формата : 1
Параметр QPel формата : Нет
Параметр GMC формата : Без точки перехода
Параметр матрицы формата : Выборочная
Идентификатор кодека : XVID
Идентификатор кодека/Подсказка : XviD
Продолжительность : 1 ч. 27 м.
Битрейт : 1048 Кбит/сек
Ширина : 640 пикселей
Высота : 480 пикселей
Соотношение сторон : 4:3
Частота кадров : 25,000 кадров/сек
Цветовое пространство : YUV
Субдискретизация насыщенности : 4:2:0
Битовая глубина : 8 бит
Тип развёртки : Прогрессивная
Метод сжатия : С потерями
Бит/(Пиксели*Кадры) : 0.136
Размер потока : 658 Мбайт (88%)
Библиотека кодирования : XviD 73
Аудио
Идентификатор : 1
Формат : MPEG Audio
Версия формата : Version 1
Профиль формата : Layer 3
Идентификатор кодека : 55
Идентификатор кодека/Подсказка : MP3
Продолжительность : 1 ч. 27 м.
Вид битрейта : Постоянный
Битрейт : 128 Кбит/сек
Каналы : 2 канала
Частота : 48,0 КГц
Метод сжатия : С потерями
Размер потока : 80,4 Мбайт (11%)
Выравнивание : Соединение по промежуткам
Продолжительность промежутка : 40 мс. (1,00 видеокадр)
Время предзагрузки промежутка : 504 мс.
Библиотека кодирования : LAME3.99r
Настройки программы : -m s -V 4 -q 2 -lowpass 17 -b 128






реклама партнёра


Вернуться к началу
 Профиль Отправить личное сообщение  
 
   Похожие торренты   Автор   Торрент   Размер 
В этой теме нет новых непрочитанных сообщений. Сердце бьется вновь (1956) DVDRip от New-Team

marya111

26 | 3

1.09 ГБ

В этой теме нет новых непрочитанных сообщений. Сердце бьется вновь (1956) DVDRip-AVC от New-Team

marya111

25 | 8

1.09 ГБ

В этой теме нет новых непрочитанных сообщений. Пусть сердце бьётся / Dil Dhadakne Do [драма, мелодрама, комедия, 2015] HDRip, Dvo

salma3

93 | 6

2.18 ГБ

В этой теме нет новых непрочитанных сообщений. Пролог (1956) VHSRip от New-Team

marya111

12 | 3

745.51 МБ

В этой теме нет новых непрочитанных сообщений. Пролог (1956) VHSRip от New-Team

marya111

15 | 3

1.46 ГБ

В этой теме нет новых непрочитанных сообщений. Пролог (1956) VHSRip-AVC от New-Team

marya111

30 | 3

1.46 ГБ

В этой теме нет новых непрочитанных сообщений. Призвание (1956) SATRip от New-Team

marya111

8 | 5

745.59 МБ


Начать новую тему Ответить на тему  [ 1 сообщение ] 




Для Мосгорсуда, Роскомнадзора и рекламодателей:: mosgorsud-torrent[собачка]yandex.ru