Торрент файл
скачать торрент магнет ссылка Добавлен: 28 янв 2017, 18:09
Размер: 1.09 ГБ
Сидеров: 26
Личеров: 3
Автор

СообщениеДобавлено: 28 янв 2017, 18:09 

Не в сети
Дата регистрации:
28 сен 2016, 18:10
Спасибо: 203 / 0
Сообщения: 2003

Страна: СССР
Производство: Мосфильм
Жанр: драма
Год выпуска: 1956
Продолжительность: 01:27:49
Перевод: Не требуется
Cубтитры: нет
Оригинальная аудиодорожка: русский
Режиссер: Абрам Роом
В ролях:
Вячеслав Тихонов, Николай Симонов, Андрей Абрикосов, Кирилл Столяров, Людмила Гурченко, Нинель Мышкова, Григорий Абрикосов, Юлиана Бугаева...
Об актёрах подробней
Описание:
По мотивам повести В. Дягилева "Доктор Голубев".
Фильм посвящен таким не теряющим актуальности вопросам, как долг и честь врача, его ответственность перед больным, умение до конца отстаивать свою точку зрения и, когда необходимо, идти на риск ради спасения вверенной тебе жизни.
Спасая тонувшего в ледяной воде, солдат Балашов получает воспаление легких, осложнившееся затем тяжелым заболеванием на сердце. Молодой доктор Голубев ставит неверный диагноз и терапевтическое лечение не дает положительных результатов. Поняв свою ошибку, Голубев предлагает хирургическое вмешательство, однако недоверие к нему со стороны главного врача госпиталя отдаляет момент принятия твердого решения и ставит жизнь больного под угрозу.





Источник: DVD5 R5
Качество видео: DVDRip
Формат видео: AVI
Видео: 688x512 (4:3), 25 fps, XviD ~ 1573 kbps avg, 0.179 bit/pixel
Аудио: 48 kHz, Dolby Digital AC3 2.0, 192 kbps
Раздача от:
Общее
Полное имя : Serdce.byotsya.vnov...1956.DVDRip_[New-team]_by_AVP_Studio.avi
Формат : AVI
Формат/Информация : Audio Video Interleave
Размер файла : 1,09 Гбайт
Продолжительность : 1 ч. 27 м.
Общий поток : 1775 Кбит/сек
Программа кодирования : VirtualDubMod 1.5.10.3 | www.virtualdub-fr.org || (build 2550/release)
Библиотека кодирования : VirtualDubMod build 2550/release
Видео
Идентификатор : 0
Формат : MPEG-4 Visual
Профиль формата : Advanced Simple@L5
Параметр BVOP формата : 1
Параметр QPel формата : Нет
Параметр GMC формата : Без точки перехода
Параметр матрицы формата : Выборочная
Идентификатор кодека : XVID
Идентификатор кодека/Подсказка : XviD
Продолжительность : 1 ч. 27 м.
Битрейт : 1573 Кбит/сек
Ширина : 688 пикселей
Высота : 512 пикселей
Соотношение сторон : 4:3
Частота кадров : 25,000 кадров/сек
Цветовое пространство : YUV
Субдискретизация насыщенности : 4:2:0
Битовая глубина : 8 бит
Тип развёртки : Прогрессивная
Метод сжатия : С потерями
Бит/(Пиксели*Кадры) : 0.179
Размер потока : 988 Мбайт (89%)
Библиотека кодирования : XviD 73
Аудио
Идентификатор : 1
Формат : AC-3
Формат/Информация : Audio Coding 3
Расширение режима : CM (complete main)
Параметр Endianness формата : Big
Идентификатор кодека : 2000
Продолжительность : 1 ч. 27 м.
Вид битрейта : Постоянный
Битрейт : 192 Кбит/сек
Каналы : 2 канала
Расположение каналов : Front: L R
Частота : 48,0 КГц
Частота кадров : 31,250 кадров/сек (1536 spf)
Битовая глубина : 16 бит
Метод сжатия : С потерями
Размер потока : 121 Мбайт (11%)
Выравнивание : Разделение по промежуткам
Продолжительность промежутка : 40 мс. (1,00 видеокадр)
Время предзагрузки промежутка : 500 мс






реклама партнёра


Вернуться к началу
 Профиль Отправить личное сообщение  
 
   Похожие торренты   Автор   Торрент   Размер 
В этой теме нет новых непрочитанных сообщений. Сердце бьется вновь (1956) DVDRip-AVC от New-Team

marya111

25 | 8

1.09 ГБ

В этой теме нет новых непрочитанных сообщений. Сердце бьется вновь (1956) DVDRip от New-Team

marya111

22 | 3

744.94 МБ

В этой теме нет новых непрочитанных сообщений. Пусть сердце бьётся / Dil Dhadakne Do [драма, мелодрама, комедия, 2015] HDRip, Dvo

salma3

93 | 6

2.18 ГБ

В этой теме нет новых непрочитанных сообщений. Призвание (1956) SATRip-AVC от New-Team

marya111

25 | 4

1.09 ГБ

В этой теме нет новых непрочитанных сообщений. Призвание (1956) SATRip от New-Team

marya111

13 | 2

1.09 ГБ

В этой теме нет новых непрочитанных сообщений. Пролог (1956) VHSRip от New-Team

marya111

12 | 3

745.51 МБ

В этой теме нет новых непрочитанных сообщений. Пролог (1956) VHSRip-AVC от New-Team

marya111

30 | 3

1.46 ГБ


Начать новую тему Ответить на тему  [ 1 сообщение ] 




Для Мосгорсуда, Роскомнадзора и рекламодателей:: mosgorsud-torrent[собачка]yandex.ru