COVID-19 - Последняя информация о коронавирусе на сайте Минздрава




Торрент файл
скачать торрент магнет ссылка Добавлен: 28 янв 2017, 18:09
Размер: 1.09 ГБ
Сидеров: 24
Личеров: 14
Автор

СообщениеДобавлено: 28 янв 2017, 18:09 

Не в сети
Дата регистрации:
28 сен 2016, 18:10
Спасибо: 232 / 0
Сообщения: 1982

Страна: СССР
Производство: Киевская киностудия им. А. Довженко
Жанр: комедия, драма, приключения
Год выпуска: 1956
Продолжительность: 01:18:42
Перевод: Не требуется
Cубтитры: нет
Оригинальная аудиодорожка: русский
Режиссер: Владимир Крайниченко, Григорий Липшиц
В ролях:
Евгений Бондаренко, Тамара Чернова, Анатолий Кузнецов, Олег Анофриев, Илья Моровщик, Тамара Яренко, Зоя Василькова, Р. Кватадзе...
Об актёрах подробней
Описание:
Фильм про спортсменов-альпинистов.
Директор завода Назаров и инженер Петров постоянно конфликтуют. Оба мечтают об отпуске, чтобы на какое-то время побыть друг без друга. Так случилось, что они оказались в одном альпинистском отряде. Тут главным оказался Петров. Понадобилась отрядная жизнь и немалые трудности, чтобы Назаров понял, каким мужественным, человечным и цельным является Петров.





Источник: DVB
Качество видео: SATRip
Формат видео: AVI
Видео: 672x496 (4:3), 25 fps, XviD ~ 1780 kbps avg, 0.214 bit/pixel
Аудио: 48 kHz, Dolby Digital AC3 2.0, 192 kbps
Раздача от:
Общее
Полное имя : Puteshestvie.v.molodost.1956.SATRip_[New-team]_by_AVP_Studio.avi
Формат : AVI
Формат/Информация : Audio Video Interleave
Размер файла : 1,09 Гбайт
Продолжительность : 1 ч. 18 м.
Общий поток : 1981 Кбит/сек
Программа кодирования : VirtualDubMod 1.5.10.3 | www.virtualdub-fr.org || (build 2550/release)
Библиотека кодирования : VirtualDubMod build 2550/release
Видео
Идентификатор : 0
Формат : MPEG-4 Visual
Профиль формата : Advanced Simple@L5
Параметр BVOP формата : 1
Параметр QPel формата : Нет
Параметр GMC формата : Без точки перехода
Параметр матрицы формата : Выборочная
Идентификатор кодека : XVID
Идентификатор кодека/Подсказка : XviD
Продолжительность : 1 ч. 18 м.
Битрейт : 1780 Кбит/сек
Ширина : 672 пикселя
Высота : 496 пикселей
Соотношение сторон : 4:3
Частота кадров : 25,000 кадров/сек
Цветовое пространство : YUV
Субдискретизация насыщенности : 4:2:0
Битовая глубина : 8 бит
Тип развёртки : Прогрессивная
Метод сжатия : С потерями
Бит/(Пиксели*Кадры) : 0.214
Размер потока : 1002 Мбайт (90%)
Библиотека кодирования : XviD 73
Аудио
Идентификатор : 1
Формат : AC-3
Формат/Информация : Audio Coding 3
Расширение режима : CM (complete main)
Параметр Endianness формата : Big
Идентификатор кодека : 2000
Продолжительность : 1 ч. 18 м.
Вид битрейта : Постоянный
Битрейт : 192 Кбит/сек
Каналы : 2 канала
Расположение каналов : Front: L R
Частота : 48,0 КГц
Частота кадров : 31,250 кадров/сек (1536 spf)
Битовая глубина : 16 бит
Метод сжатия : С потерями
Размер потока : 108 Мбайт (10%)
Выравнивание : Разделение по промежуткам
Продолжительность промежутка : 40 мс. (1,00 видеокадр)
Время предзагрузки промежутка : 500 мс





Скачать книги и аудио книги через торрент


Вернуться к началу
 Профиль Отправить личное сообщение  
 
   Похожие торренты   Автор   Торрент   Размер 
В этой теме нет новых непрочитанных сообщений. Вторая молодость [Мелодрама, 2017] WEB-DLRip

salma3

649 | 56

1.37 ГБ

В этой теме нет новых непрочитанных сообщений. Вторая молодость [Мелодрама, 2017] HDTVRip 720p

salma3

164 | 41

2.57 ГБ

В этой теме нет новых непрочитанных сообщений. Вторая молодость [Мелодрама, 2017] HDTV 1080i

salma3

99 | 33

4.71 ГБ

В этой теме нет новых непрочитанных сообщений. Вторая молодость [Мелодрама, 2017] WEB-DLRip-AVC

salma3

258 | 22

1.37 ГБ

В этой теме нет новых непрочитанных сообщений. Путешествие с курицей по реке / Flußfahrt mit Huhn [приключения, семейный, 1984] SATRip, Avo

salma3

0 | 0

1.53 ГБ

В этой теме нет новых непрочитанных сообщений. Молодость больница и любовь / Young Doctors in Love [комедия, 1982] HDRip, Avo

salma3

33 | 9

1.45 ГБ

В этой теме нет новых непрочитанных сообщений. Дикая молодость / Savage Youth [Драма, криминал, 2018] WEB-DL 1080p, Mvo

salma3

0 | 0

4.01 ГБ


Начать новую тему Ответить на тему  [ 1 сообщение ] 




Для Мосгорсуда, Роскомнадзора и рекламодателей:: rstracker[собака]yandex.ru
cron