Торрент файл
скачать торрент магнет ссылка Добавлен: 28 янв 2017, 18:09
Размер: 1.46 ГБ
Сидеров: 15
Личеров: 3
Автор

СообщениеДобавлено: 28 янв 2017, 18:09 

Не в сети
Дата регистрации:
28 сен 2016, 18:10
Спасибо: 205 / 0
Сообщения: 2003

Страна: СССР
Производство: Мосфильм
Жанр: драма
Год выпуска: 1956
Продолжительность: 01:39:48
Перевод: Не требуется
Cубтитры: нет
Оригинальная аудиодорожка: русский
Режиссер: Ефим Дзиган
В ролях:
Николай Плотников, Мария Пастухова, Павел Кадочников, Владимир Соловьёв, Инна Кондратьева, Виктор Авдюшко, Данута Столярская, Нина Родионова, Павел Винник, Зинаида Воркуль, Николай Граббе, Пётр Константинов, Геннадий Юдин, Владимир Колчин, Ефим Копелян, Пётр Савин, Иван Коваль-Самборский...
Об актёрах подробней
Описание:
Об одном из эпизодов первой русской революции 1905 года. После жестокой расправы с мирной демонстрацией трудового народа под руководительством попа Гапона, известной как «кровавое воскресение» направлявшейся к царю, В. И. Ленин и другие члены партии, находящиеся в эмиграции, призывают рабочих к вооруженному восстанию.





Источник: VHS
Качество видео: VHSRip
Формат видео: AVI
Видео: 704x528 (4:3), 25 fps, XviD ~ 1892 kbps avg, 0.204 bit/pixel
Аудио: 48 kHz, Dolby Digital AC3 2.0, 192 kbps
Раздача от:
Общее
Полное имя : Prolog.1956.VHSRip_[New-team]_by_AVP_Studio.avi
Формат : AVI
Формат/Информация : Audio Video Interleave
Размер файла : 1,46 Гбайт
Продолжительность : 1 ч. 39 м.
Общий поток : 2094 Кбит/сек
Программа кодирования : VirtualDubMod 1.5.10.3 | www.virtualdub-fr.org || (build 2550/release)
Библиотека кодирования : VirtualDubMod build 2550/release
Видео
Идентификатор : 0
Формат : MPEG-4 Visual
Профиль формата : Advanced Simple@L5
Параметр BVOP формата : 1
Параметр QPel формата : Нет
Параметр GMC формата : Без точки перехода
Параметр матрицы формата : Выборочная
Идентификатор кодека : XVID
Идентификатор кодека/Подсказка : XviD
Продолжительность : 1 ч. 39 м.
Битрейт : 1892 Кбит/сек
Ширина : 704 пикселя
Высота : 528 пикселей
Соотношение сторон : 4:3
Частота кадров : 25,000 кадров/сек
Цветовое пространство : YUV
Субдискретизация насыщенности : 4:2:0
Битовая глубина : 8 бит
Тип развёртки : Прогрессивная
Метод сжатия : С потерями
Бит/(Пиксели*Кадры) : 0.204
Размер потока : 1,32 Гбайт (90%)
Библиотека кодирования : XviD 73
Аудио
Идентификатор : 1
Формат : AC-3
Формат/Информация : Audio Coding 3
Расширение режима : CM (complete main)
Параметр Endianness формата : Big
Идентификатор кодека : 2000
Продолжительность : 1 ч. 39 м.
Вид битрейта : Постоянный
Битрейт : 192 Кбит/сек
Каналы : 2 канала
Расположение каналов : Front: L R
Частота : 48,0 КГц
Частота кадров : 31,250 кадров/сек (1536 spf)
Битовая глубина : 16 бит
Метод сжатия : С потерями
Размер потока : 137 Мбайт (9%)
Выравнивание : Разделение по промежуткам
Продолжительность промежутка : 40 мс. (1,00 видеокадр)
Время предзагрузки промежутка : 500 мс






реклама партнёра


Вернуться к началу
 Профиль Отправить личное сообщение  
 
   Похожие торренты   Автор   Торрент   Размер 
В этой теме нет новых непрочитанных сообщений. Пролог (1956) VHSRip от New-Team

marya111

12 | 3

745.51 МБ

В этой теме нет новых непрочитанных сообщений. Пролог (1956) VHSRip-AVC от New-Team

marya111

30 | 3

1.46 ГБ

В этой теме нет новых непрочитанных сообщений. Призвание (1956) SATRip от New-Team

marya111

13 | 2

1.09 ГБ

В этой теме нет новых непрочитанных сообщений. Призвание (1956) SATRip от New-Team

marya111

8 | 5

745.59 МБ

В этой теме нет новых непрочитанных сообщений. Призвание (1956) SATRip-AVC от New-Team

marya111

25 | 4

1.09 ГБ

В этой теме нет новых непрочитанных сообщений. Путешествие в молодость (1956) SATRip-AVC от New-Team

marya111

58 | 17

1.09 ГБ

В этой теме нет новых непрочитанных сообщений. Софья Ковалевская (1956) SATRip от New-Team

marya111

13 | 3

1.46 ГБ


Начать новую тему Ответить на тему  [ 1 сообщение ] 




Для Мосгорсуда, Роскомнадзора и рекламодателей:: mosgorsud-torrent[собачка]yandex.ru