Торрент файл
скачать торрент магнет ссылка Добавлен: 28 янв 2017, 18:09
Размер: 1.45 ГБ
Сидеров: 1069
Личеров: 77
Автор

СообщениеДобавлено: 28 янв 2017, 18:09 

Не в сети
Дата регистрации:
28 сен 2016, 18:10
Спасибо: 205 / 0
Сообщения: 2003
Информация о фильме
Оригинальное название: Моя революция
Год выпуска: 2016
Жанр: Драма, приключения, триллер
Режиссер: Александр Карпиловский
В ролях: Иван Жидков, Владимир Епифанцев, Игорь Миркурбанов, Елизавета Саксина, Макс Уральский, Анна Носатова, Максим Сапрыкин
О фильме:
Артур – тридцатилетний житель мегаполиса с обычными проблемами типа нехватки денег, отсутствия взаимопонимания с бывшей женой, матерью его ребёнка, и самодурства деспота-начальника. Он пишет речи для кандидата в народные избранники и обладателя машины с «мигалкой», прилежно соблюдая известные каждому правила игры в больших и маленьких людей. Но всё меняется, когда судьба сводит его со случайным попутчиком. Конфликт интеллигентного клерка с помешанным на войне психопатом даёт старт игре, ставка в которой - жизнь...
Страна: Россия
Студия: Энджи Продакшн
Продолжительность: 01:34:49
Перевод: Не требуется
Файл
Формат: avi
Качество: HDTVRip
Видео: XviD build 73, 720x400 (2.35:1), 25.000 fps, 1993 Kbps (0.277 bit/pixel)
Звук: 48.0 kHz, AC3, 2/0 ch, 192 kbps
Субтитры: нет
General
Complete name : Moja.Revoljucija.2016.XviD.HDTVRip.GeneralFilm.avi
Format : AVI
Format/Info : Audio Video Interleave
File size : 1.45 GiB
Duration : 1h 34mn
Overall bit rate : 2 195 Kbps
Writing application : VirtualDubMod 1.5.10.3 | www.virtualdub-fr.org || (build 2550/release)
Writing library : VirtualDubMod build 2550/release
Video
ID : 0
Format : MPEG-4 Visual
Format profile : Advanced Simple@L5
Format settings, BVOP : 1
Format settings, QPel : No
Format settings, GMC : No warppoints
Format settings, Matrix : Custom
Codec ID : XVID
Codec ID/Hint : XviD
Duration : 1h 34mn
Bit rate : 1 993 Kbps
Width : 720 pixels
Height : 400 pixels
Display aspect ratio : 16:9
Frame rate : 25.000 fps
Color space : YUV
Chroma subsampling : 4:2:0
Bit depth : 8 bits
Scan type : Progressive
Compression mode : Lossy
Bits/(Pixel*Frame) : 0.277
Stream size : 1.32 GiB (91%)
Writing library : XviD 73
Audio
ID : 1
Format : AC-3
Format/Info : Audio Coding 3
Mode extension : CM (complete main)
Format settings, Endianness : Big
Codec ID : 2000
Duration : 1h 34mn
Bit rate mode : Constant
Bit rate : 192 Kbps
Channel(s) : 2 channels
Channel positions : Front: L R
Sampling rate : 48.0 KHz
Frame rate : 31.250 fps (1536 spf)
Compression mode : Lossy
Stream size : 130 MiB (9%)
Alignment : Split accross interleaves
Interleave, duration : 40 ms (1.00 video frame)
Interleave, preload duratio : 500 ms

Релиз от:




реклама партнёра


Вернуться к началу
 Профиль Отправить личное сообщение  
 
   Похожие торренты   Автор   Торрент   Размер 
В этой теме нет новых непрочитанных сообщений. Опекун [01-08 из 16] (2016) HDTVRip от GeneralFilm

marya111

509 | 192

4.36 ГБ

В этой теме нет новых непрочитанных сообщений. Казаки [01-16 из 16] (2016) HDTVRip от Generalfilm | КПК

marya111

328 | 88

2.86 ГБ

В этой теме нет новых непрочитанных сообщений. Казаки [01-16 из 16] (2016) HDTVRip от GeneralFilm

marya111

498 | 149

4.36 ГБ

В этой теме нет новых непрочитанных сообщений. Моя революция [Драма, Приключения, Триллер, 2016] HDTVRip-AVC

salma3

647 | 63

1.37 ГБ

В этой теме нет новых непрочитанных сообщений. Отогрей мое сердце ( Мелодрама, 2016) HDTVRip от GeneralFilm

marya111

430 | 41

744.74 МБ

В этой теме нет новых непрочитанных сообщений. Три королевы [01-08 из 08] (Детектив, мелодрама, 2016) HDTVRip от GeneralFilm

marya111

234 | 89

2.9 ГБ

В этой теме нет новых непрочитанных сообщений. Петрович ( Драма, криминал, 2016) HDTVRip от Generalfilm | КПК

marya111

274 | 31

501.85 МБ


Начать новую тему Ответить на тему  [ 1 сообщение ] 




Для Мосгорсуда, Роскомнадзора и рекламодателей:: mosgorsud-torrent[собачка]yandex.ru